↑↓Torrent.by
Поиск
Логин: Регистрация
Пароль: Восстановить пароль
Загрузка...

Найти и обезвредить (1982) DVDRip-AVC от KORSAR

Скачать nayti-i-obezvredit-1982-dvdrip-avc-ot-korsar.torrent
U Магнитная ссылка Размер: 2.54 GB Раздают: 47 Качают: 14 Добавлен: 2018-04-12 14:01:53
Найти и обезвредить (1982) DVDRip-AVC от KORSAR

Найти и обезвредить

Страна: СССР
Жанр:  Остросюжетный детектив
Год выпуска: 1982
Продолжительность: 01:22:38
Перевод: Не требуется
Режиссер: Георгий Кузнецов
В ролях: Борис Невзоров, Александр Воеводин, Нина Русланова и Анатолий Рудаков.

Описание: Приехав из Москвы в отпуск в небольшой сибирский поселок,
молодые люди случайно оказались свидетелями ограбления инкассатора.
Они не растерялись и оказали милиции помощь при задержании преступников.

Кодек: х264
Качество: DVDRip-AVC
Видео: MPEG-4 AVC, 698х550@789x550, 25 fps, 4200 Кбит/с
Аудио: АС3, 2h, 192 Кбит/с
Субтитры: Нет


[+] Инфо файл

x264 [info]: using SAR=499/441

x264 [info]: frame I:646   Avg QP:17.14  size: 86222
x264 [info]: frame P:29730 Avg QP:19.53  size: 46621
x264 [info]: frame B:93571 Avg QP:21.33  size: 12413

Общее
Уникальный идентификатор                 : 217187740261450230633864778478375131900 (0xA364D6562B3A45D59B44373D30F7DAFC)
Полное имя                               : I:сссрНайти и обезвредить 1982_DVDRip-AVC_KORSAR.mkv
Формат                                   : Matroska
Версия формата                           : Version 2
Размер файла                             : 2,54 Гбайт
Продолжительность                        : 1 ч. 22 м.
Общий поток                              : 4394 Кбит/сек
Дата кодирования                         : UTC 2018-04-10 01:00:06
Программа кодирования                    : mkvmerge v5.8.0 ('No Sleep / Pillow') built on Sep  2 2012 15:37:04
Библиотека кодирования                   : libebml v1.2.3 + libmatroska v1.3.0

Видео
Идентификатор                            : 1
Формат                                   : AVC
Формат/Информация                        : Advanced Video Codec
Профиль формата                          : High@L4.1
Настройки формата                        : CABAC / 14 Ref Frames
Параметр CABAC формата                   : Да
Параметр RefFrames формата               : 14 кадров
Идентификатор кодека                     : V_MPEG4/ISO/AVC
Продолжительность                        : 1 ч. 22 м.
Битрейт                                  : 4200 Кбит/сек
Ширина                                   : 698 пикселей
Высота                                   : 550 пикселей
Соотношение сторон                       : 1,435
Соотношение сторон в оригинале           : 1,436
Режим частоты кадров                     : Постоянный
Частота кадров                           : 25,000 кадров/сек
Цветовое пространство                    : YUV
Субдискретизация насыщенности            : 4:2:0
Битовая глубина                          : 8 бит
Тип развёртки                            : Прогрессивная
Бит/(Пиксели*Кадры)                      : 0.438
Размер потока                            : 2,38 Гбайт (94%)
Библиотека кодирования                   : x264 core 152 r2851kMod ba24899
Настройки программы                      : cabac=1 / ref=14 / deblock=1:-2:-1 / analyse=0x3:0x133 / me=umh / subme=11 / psy=1 / fade_compensate=0.00 / psy_rd=0.50:0.02 / mixed_ref=1 / me_range=48 / chroma_me=1 / trellis=2 / 8x8dct=1 / cqm=0 / deadzone=21,11 / fast_pskip=0 / chroma_qp_offset=-3 / threads=12 / lookahead_threads=3 / sliced_threads=0 / nr=0 / decimate=0 / interlaced=0 / bluray_compat=0 / constrained_intra=0 / bframes=10 / b_pyramid=2 / b_adapt=2 / b_bias=0 / direct=3 / weightb=1 / open_gop=0 / weightp=2 / keyint=250 / keyint_min=25 / scenecut=40 / intra_refresh=0 / rc_lookahead=40 / rc=2pass / mbtree=0 / bitrate=4200 / ratetol=1.0 / qcomp=0.60 / qpmin=0 / qpmax=39 / qpstep=4 / cplxblur=20.0 / qblur=0.5 / vbv_maxrate=50000 / vbv_bufsize=62500 / nal_hrd=none / filler=0 / ip_ratio=1.25 / pb_ratio=1.30 / aq=1:0.60
Язык                                     : English
Default                                  : Да
Forced                                   : Нет
Цветовой диапазон                        : Limited
Основные цвета                           : BT.601 PAL
Характеристики трансфера                 : BT.470 System B, BT.470 System G
Коэффициенты матрицы                     : BT.470 System B, BT.470 System G

Аудио
Идентификатор                            : 2
Формат                                   : AC-3
Формат/Информация                        : Audio Coding 3
Параметр Endianness формата              : Big
Идентификатор кодека                     : A_AC3
Продолжительность                        : 1 ч. 22 м.
Вид битрейта                             : Постоянный
Битрейт                                  : 192 Кбит/сек
Каналы                                   : 2 канала
Расположение каналов                     : Front: L R
Частота                                  : 48,0 КГц
Частота кадров                           : 31,250 кадров/сек (1536 SPF)
Битовая глубина                          : 16 бит
Метод сжатия                             : С потерями
Размер потока                            : 113 Мбайт (4%)
Язык                                     : Russian
Default                                  : Да
Forced                                   : Нет




Скриншоты:
[+] Всего файлов в раздаче - 1:
Найти и обезвредить 1982_DVDRip-AVC_KORSAR.mkv2.54 GB

Текущая раздача:
ДатаКомментарии    РазмерПиры
2018-04-12 U Найти и обезвредить (1982) DVDRip-AVC от KORSAR 1 К 2.54 GB ↑ 47 ↓ 14

Показать еще раздачи по запросу найти:
2018-06-29 U Сергей Козорез - Тайна власти над людьми. Как понимать себя, влиять на других и найти свой путь к мечте (2018) PDF, FB2, RTF 38.90 MB ↑ 576 ↓ 27
2018-04-15 U Найти мужа Дарье Климовой [01-04 из 04] (2016) WEB-DLRip от Files-x 2.74 GB ↑ 71 ↓ 63
2018-04-14 U Найти мужа Дарье Климовой [01х01-04 из 04] (2016) SATRip-AVC 2.47 GB ↑ 50 ↓ 4
2018-04-14 U Найти мужа Дарье Климовой [01-04 из 04] (2016) HDTV 1080i от GeneralFilm 8.81 GB ↑ 57 ↓ 59
2018-04-14 U Найти мужа Дарье Климовой [01-04 из 04] (2016) HDTVRip от GeneralFilm 2.75 GB ↑ 186 ↓ 170
2017-04-17 U Фантастическая любовь и где ее найти / This Beautiful Fantastic (2016) CAMRip | P 1.37 GB ↑ 319 ↓ 4
2016-03-01 U Данил Корецкий – Найти «Сатану» (2016) MP3 638.73 MB ↑ 129 ↓ 21

Отзывы
maksim234
Сравнение с исходником

Зарегистрируйтесь чтобы добавить комментарий.
Обратная связь
Copyleft ©