↑↓Torrent.by
Поиск
Логин: Регистрация
Пароль: Восстановить пароль
Загрузка...

На грани безумия / Spinning Man (2018) WEBRip | L2

Скачать na-grani-bezumiya-spinning-man-2018-webrip-l2.torrent
U Магнитная ссылка Размер: 1.41 GB Раздают: 117 Качают: 88 Добавлен: 2018-04-12 16:36:51
На грани безумия / Spinning Man (2018) WEBRip | L2

Название: На грани безумия
Оригинальное название: Spinning Man
Год выхода: 2018
Жанр: Триллер, драма, детектив
Режиссер: Симон Кайзер
В ролях: Одейя Раш, Пирс Броснан, Гай Пирс, Минни Драйвер, Александра Шипп, Кларк Грегг, Джейми Кеннеди, Стерлинг Бомон, Фрея Тингли, Карло Рота и другие
О фильме:
Респектабельная жизнь профессора философии Эвана Берча начинает рушиться по мере того, как появляются подробности о его неподобающем поведении со студентками. В довершении ко всему герой становится центральным подозреваемым в деле об убийстве одной из слушательниц его курса.

Страна: Швеция, США, Irish DreamTime
Продолжительность: 01:41:05
Перевод: Любительский (двухголосый закадровый) | HiWay Grope

Файл
Кодек: XviD
Качество: WEBRip
Видео: 720x304, 23.976 fps, ~1598 kbps, 0.30 bit/pixel
Звук:
Аудио rus: AC3, 48 kHz, 6 ch, 384 Kbps
Субтитры: отсутствуют

Реклама: присутствует

Семпл

Релиз от: HiWay Grope


[+] MediaInfo:

General
Complete name                            : E:Spinning.Man.2018.WEBRip.HiWayGropeSpinning.Man.2018.WEBRip.HiWayGrope.avi
Format                                   : AVI
Format/Info                              : Audio Video Interleave
File size                                : 1.41 GiB
Duration                                 : 1h 41mn
Overall bit rate                         : 1 992 Kbps
Writing application                      : VirtualDubMod 1.5.10.3 (build 2550/release)
Writing library                          : VirtualDubMod build 2550/release

Video
ID                                       : 0
Format                                   : MPEG-4 Visual
Format profile                           : Advanced Simple@L5
Format settings, BVOP                    : 1
Format settings, QPel                    : No
Format settings, GMC                     : No warppoints
Format settings, Matrix                  : Default (MPEG)
Codec ID                                 : XVID
Codec ID/Hint                            : XviD
Duration                                 : 1h 41mn
Bit rate                                 : 1 598 Kbps
Width                                    : 720 pixels
Height                                   : 304 pixels
Display aspect ratio                     : 2.35:1
Frame rate                               : 23.976 (23976/1000) fps
Color space                              : YUV
Chroma subsampling                       : 4:2:0
Bit depth                                : 8 bits
Scan type                                : Progressive
Compression mode                         : Lossy
Bits/(Pixel*Frame)                       : 0.305
Stream size                              : 1.13 GiB (80%)
Writing library                          : XviD 73

Audio
ID                                       : 1
Format                                   : AC-3
Format/Info                              : Audio Coding 3
Mode extension                           : CM (complete main)
Format settings, Endianness              : Big
Codec ID                                 : 2000
Duration                                 : 1h 41mn
Bit rate mode                            : Constant
Bit rate                                 : 384 Kbps
Channel(s)                               : 6 channels
Channel positions                        : Front: L C R, Side: L R, LFE
Sampling rate                            : 48.0 KHz
Frame rate                               : 31.250 fps (1536 spf)
Compression mode                         : Lossy
Stream size                              : 278 MiB (19%)
Alignment                                : Split accross interleaves
Interleave, duration                     : 42 ms (1.00 video frame)
Interleave, preload duration             : 500 ms




Скриншоты:
[+] Всего файлов в раздаче - 1:
Spinning.Man.2018.WEBRip.HiWayGrope.avi1.41 GB

Текущая раздача:
ДатаКомментарии    РазмерПиры
2018-04-12 U На грани безумия / Spinning Man (2018) WEBRip | L2 1.41 GB ↑ 117 ↓ 88

Показать еще раздачи по запросу грани:
2018-04-16 U На грани безумия / Spinning Man (2018) WEB-DL 1080p от New-Team | HiWay Grope 6.81 GB ↑ 36 ↓ 37
2018-04-16 U На грани безумия / Spinning Man (2018) WEB-DLRip-AVC от New-Team | HiWay Grope 1.50 GB ↑ 24 ↓ 8
2018-04-12 U На грани безумия / Spinning Man (2018) WEBRip 720p | L2 1.75 GB ↑ 346 ↓ 151
2017-12-19 U Григорий Шаргородский - Грани страха (2017) MP3 414.55 MB ↑ 63 ↓ 13
2017-05-22 U Фрэнсис Эшкрофт - На грани возможного. Наука выживания (2016) FB2 12.26 MB ↑ 222 ↓ 23
2016-06-13 U На грани добра и зла / Borderline (2014) HDRip | L1 1.46 GB ↑ 349 ↓ 97
2016-06-05 U Планета на грани исчезновения / Mass Extinction: Life on the Brink (2014) HDTVRip 720p | P2 1.40 GB ↑ 169 ↓ 22

Отзывы
Зарегистрируйтесь чтобы добавить комментарий.
Обратная связь
Copyleft ©