↑↓Torrent.by
Поиск
Логин: Регистрация
Пароль: Восстановить пароль
Загрузка...

Пойманный / Caught (2016) WEB-DL 1080p | HDrezka Studio

Скачать poymannyy-caught-2016-web-dl-1080p-hdrezka-studio.torrent
U Магнитная ссылка Размер: 3.19 GB Раздают: 38 Качают: 17 Добавлен: 2018-04-12 16:37:24
Пойманный / Caught (2016) WEB-DL 1080p | HDrezka Studio

Пойманный / Caught

Страна: Великобритания
Производство: Castleview Films, Dandelion Productions, Gael Films
Год выпуска: 2016
Жанр:  ужасы
Продолжительность: 01:25:24

Режиссер: Джэми Паттерсон
Автор сценария: Алекс Френсис

В ролях: Киэн Бэрри, Рубен Кроу, Аарон Дэвис, Дэйв Мунфилд, Эйприл Пирсон, Мики Самнер

Описание: Семейная пара журналистов Эндрю и Джули Костелло, которая расследует подозрительную активность военных рядом со своим домом, знакомится с Ребеккой и Майклом для интервью, которое, скорее всего, превратится для них в настоящий кошмар...

Перевод: Любительский (многоголосый, закадровый) | HDrezka Studio
Субтитры: английские

Качество: WEB-DL 1080p
Формат: МКV
Видео кодек: AVC
Аудио кодек: АС3
Видео: 1916x800 (2.40:1), 23.976 fps, MPEG-4 AVC ~4 470 kbps avg
Аудио №1: 48.0 kHz, AC3 Dolby Digital, 2/0 (L,R) ch, ~384 kbps | RUS | HDrezka Studio
Аудио №2: 48.0 kHz, AC3 Dolby Digital, 3/2 (L,C,R,l,r) + LFE ch, ~384 kbps | ENG
Формат субтитров: UTF-8 Plain Text

Дата премьеры (мир): 30 марта 2017


[+] Media Info
General
Unique ID                      : 220224978300504000585631993137965070034 (0xA5ADC9BBC0282076AFA1C98FF46876D2)
Format                         : Matroska
Format version                 : Version 2
File size                      : 3.19 GiB
Duration                       : 1h 25mn
Overall bit rate               : 5 344 Kbps
Encoded date                   : UTC 2018-04-12 08:09:14
Writing application            : mkvmerge v7.8.0 ('River Man') 32bit built on Apr  3 2015 12:11:22
Writing library                : libebml v1.3.1 + libmatroska v1.4.2

Video
ID                             : 1
Format                         : AVC
Format/Info                    : Advanced Video Codec
Format profile                 : High@L4
Format settings, CABAC         : Yes
Format settings, ReFrames      : 5 frames
Codec ID                       : V_MPEG4/ISO/AVC
Duration                       : 1h 25mn
Bit rate                       : 4 470 Kbps
Width                          : 1 916 pixels
Height                         : 800 pixels
Display aspect ratio           : 2.40:1
Frame rate mode                : Constant
Frame rate                     : 23.976 fps
Color space                    : YUV
Chroma subsampling             : 4:2:0
Bit depth                      : 8 bits
Scan type                      : Progressive
Bits/(Pixel*Frame)             : 0.122
Stream size                    : 2.67 GiB (84%)
Language                       : English
Default                        : Yes
Forced                         : No
Color range                    : Limited
Color primaries                : BT.709
Transfer characteristics       : BT.709
Matrix coefficients            : BT.709

Audio #1
ID                             : 2
Format                         : AC-3
Format/Info                    : Audio Coding 3
Mode extension                 : CM (complete main)
Format settings, Endianness    : Big
Codec ID                       : A_AC3
Duration                       : 1h 25mn
Bit rate mode                  : Constant
Bit rate                       : 384 Kbps
Channel(s)                     : 2 channels
Channel positions              : Front: L R
Sampling rate                  : 48.0 KHz
Compression mode               : Lossy
Stream size                    : 235 MiB (7%)
Title                          : HDrezka
Language                       : Russian
Default                        : Yes
Forced                         : Yes

Audio #2
ID                             : 3
Format                         : AC-3
Format/Info                    : Audio Coding 3
Mode extension                 : CM (complete main)
Format settings, Endianness    : Big
Codec ID                       : A_AC3
Duration                       : 1h 25mn
Bit rate mode                  : Constant
Bit rate                       : 384 Kbps
Channel(s)                     : 6 channels
Channel positions              : Front: L C R, Side: L R, LFE
Sampling rate                  : 48.0 KHz
Compression mode               : Lossy
Stream size                    : 235 MiB (7%)
Language                       : English
Default                        : No
Forced                         : No

Text
ID                             : 4
Format                         : UTF-8
Codec ID                       : S_TEXT/UTF8
Codec ID/Info                  : UTF-8 Plain Text
Language                       : English
Default                        : Yes
Forced                         : No

Menu
00:00:00.000                   : en:1
00:10:00.600                   : en:2
00:20:01.200                   : en:3
00:30:01.800                   : en:4
00:40:02.400                   : en:5
00:50:03.000                   : en:6
01:00:03.600                   : en:7
01:10:04.200                   : en:8
01:20:04.800                   : en:9



Скриншоты:
[+] Всего файлов в раздаче - 1:
Caught (2017) WEB-DL 1080p.mkv3.19 GB

Текущая раздача:
ДатаКомментарии    РазмерПиры
2018-04-12 U Пойманный / Caught (2016) WEB-DL 1080p | HDrezka Studio 3.19 GB ↑ 38 ↓ 17

Похожие раздачи по запросу - пойманный:
2018-04-12 U Пойманный / Caught (2016) WEB-DLRip | HDrezka Studio 1.36 GB ↑ 45 ↓ 33

Отзывы
Зарегистрируйтесь чтобы добавить комментарий.
Обратная связь
Copyleft ©