↑↓Torrent.by
Поиск
Логин: Регистрация
Пароль: Восстановить пароль
Загрузка...

На грани безумия / Spinning Man (2018) WEBRip 720p | L2

Скачать na-grani-bezumiya-spinning-man-2018-webrip-720p-l2.torrent
U Магнитная ссылка Размер: 1.75 GB Раздают: 347 Качают: 151 Добавлен: 2018-04-12 21:29:24
На грани безумия / Spinning Man (2018) WEBRip 720p | L2

Название: На грани безумия
Оригинальное название: Spinning Man
Год выхода: 2018
Жанр: Триллер, драма, детектив
Режиссер: Симон Кайзер
В ролях: Одейя Раш, Пирс Броснан, Гай Пирс, Минни Драйвер, Александра Шипп, Кларк Грегг, Джейми Кеннеди, Стерлинг Бомон, Фрея Тингли, Карло Рота и другие
О фильме:
Респектабельная жизнь профессора философии Эвана Берча начинает рушиться по мере того, как появляются подробности о его неподобающем поведении со студентками. В довершении ко всему герой становится центральным подозреваемым в деле об убийстве одной из слушательниц его курса.

Страна: Швеция, США, Irish DreamTime
Продолжительность: 01:41:05
Перевод: Любительский (двухголосый закадровый) | HiWay Grope

Файл
Кодек: MPEG-4 AVC/x.264
Качество: WEBRip 720p
Видео: 1280x528, 23.976 fps, ~2043 kbps, 0.126 bit/pixel
Звук:
Аудио rus: AC3, 48 kHz, 6 ch, 384 Kbps
Субтитры: отсутствуют

Реклама: присутствует

Семпл

Релиз от: HiWay Grope


[+] MediaInfo:

General
Unique ID                                : 303274675864612243676131130822593646666 (0xE42893F554A6DFAB4B7AFEF0CDBC904A)
Complete name                            : E:Spinning.Man.2018.720p.WEBRip.HiWayGropeSpinning.Man.2018.720p.WEBRip.HiWayGrope.mkv
Format                                   : Matroska
Format version                           : Version 4 / Version 2
File size                                : 1.75 GiB
Duration                                 : 1h 41mn
Overall bit rate                         : 2 476 Kbps
Encoded date                             : UTC 2018-04-12 11:05:38
Writing application                      : mkvmerge v21.0.0 ('Tardigrades Will Inherit The Earth') 64-bit
Writing library                          : libebml v1.3.5 + libmatroska v1.4.8

Video
ID                                       : 1
Format                                   : AVC
Format/Info                              : Advanced Video Codec
Format profile                           : Main@L4.1
Format settings, CABAC                   : Yes
Format settings, ReFrames                : 4 frames
Codec ID                                 : V_MPEG4/ISO/AVC
Duration                                 : 1h 41mn
Bit rate                                 : 2 043 Kbps
Width                                    : 1 280 pixels
Height                                   : 528 pixels
Display aspect ratio                     : 2.40:1
Frame rate mode                          : Constant
Frame rate                               : 23.976 (24000/1001) fps
Standard                                 : NTSC
Color space                              : YUV
Chroma subsampling                       : 4:2:0
Bit depth                                : 8 bits
Scan type                                : Progressive
Bits/(Pixel*Frame)                       : 0.126
Stream size                              : 1.44 GiB (83%)
Language                                 : English
Default                                  : Yes
Forced                                   : No
Color range                              : Limited
Color primaries                          : BT.601 NTSC
Transfer characteristics                 : BT.601
Matrix coefficients                      : BT.601

Audio
ID                                       : 2
Format                                   : AC-3
Format/Info                              : Audio Coding 3
Mode extension                           : CM (complete main)
Format settings, Endianness              : Big
Codec ID                                 : A_AC3
Duration                                 : 1h 41mn
Bit rate mode                            : Constant
Bit rate                                 : 384 Kbps
Channel(s)                               : 6 channels
Channel positions                        : Front: L C R, Side: L R, LFE
Sampling rate                            : 48.0 KHz
Frame rate                               : 31.250 fps (1536 spf)
Compression mode                         : Lossy
Stream size                              : 278 MiB (16%)
Title                                    : rus
Language                                 : Russian
Default                                  : Yes
Forced                                   : No




Скриншоты:
[+] Всего файлов в раздаче - 1:
Spinning.Man.2018.720p.WEBRip.HiWayGrope.mkv1.75 GB

Текущая раздача:
ДатаКомментарии    РазмерПиры
2018-04-12 U На грани безумия / Spinning Man (2018) WEBRip 720p | L2 1.75 GB ↑ 347 ↓ 151

Показать еще раздачи по запросу грани:
2018-04-16 U На грани безумия / Spinning Man (2018) WEB-DL 1080p от New-Team | HiWay Grope 6.81 GB ↑ 36 ↓ 37
2018-04-16 U На грани безумия / Spinning Man (2018) WEB-DLRip-AVC от New-Team | HiWay Grope 1.50 GB ↑ 27 ↓ 8
2018-04-12 U На грани безумия / Spinning Man (2018) WEBRip | L2 1.41 GB ↑ 119 ↓ 88
2017-12-19 U Григорий Шаргородский - Грани страха (2017) MP3 414.55 MB ↑ 65 ↓ 13
2017-05-22 U Фрэнсис Эшкрофт - На грани возможного. Наука выживания (2016) FB2 12.26 MB ↑ 222 ↓ 23
2016-06-13 U На грани добра и зла / Borderline (2014) HDRip | L1 1.46 GB ↑ 349 ↓ 97
2016-06-05 U Планета на грани исчезновения / Mass Extinction: Life on the Brink (2014) HDTVRip 720p | P2 1.40 GB ↑ 169 ↓ 22

Отзывы
Зарегистрируйтесь чтобы добавить комментарий.
Обратная связь
Copyleft ©