↑↓Torrent.by
Поиск
Логин: Регистрация
Пароль: Восстановить пароль
Загрузка...

Бегущий в лабиринте: Лекарство от смерти / Maze Runner: The Death Cure (2018) BDRip 720p | Sub

Скачать beguschiy-v-labirinte-lekarstvo-ot-smerti-maze-runner-the-death-cure-2018-bdrip-720p-sub.torrent
U Магнитная ссылка Размер: 7.48 GB Раздают: 49 Качают: 63 Добавлен: 2018-04-13 07:12:06
Бегущий в лабиринте: Лекарство от смерти / Maze Runner: The Death Cure (2018) BDRip 720p | Sub

Название: Бегущий в лабиринте: Лекарство от смерти
Оригинальное название: Maze Runner: The Death Cure
Год выхода: 2018
Жанр: фантастика, боевик, триллер
Режиссер: Уэс Болл
В ролях: Дилан О’Брайен, Ли Ги-хон, Кая Скоделарио, Томас Сэнгстер, Декстер Дарден, Уилл Поултер, Джейкоб Лофленд, Роза Салазар, Джанкарло Эспозито, Патришия Кларксон

О фильме: Томас возглавляет отряд выживших глейдеров, чтобы выполнить последнюю и самую опасную миссию. Ради спасения своих друзей они должны проникнуть в легендарный Последний город, смертоносный лабиринт, контролируемый ПОРОКом. Каждый, кто выживет там, наконец-то получит ответы на все вопросы, которые мучили глейдеров с момента попадания в лабиринт.

Страна: США
Продолжительность: 02:23:52
Оригинальная аудиодорожка: английский
Субтитры: Английские, Русские (Full-length iTunes), Украинские (Full-length iTunes)

Файл
Качество: BDRip 720p | CHD
Видео: MPEG-4 AVC, 6000 Кбит/с, 1280x534, 23,976 fps
Звук: DTS, 1509 kb/s (6 ch), 48 kHz


[+] MediaInfo
Общее
Уникальный идентификатор                 : 209869951619505676657232682200557237148 (0x9DE37B803648FCF5B70D73084CE9339C)
Полное имя                               : MAZE_RUNNER_T_DEATH_CURE_BDRip_720p-BLUEBIRD.mkv
Формат                                   : Matroska
Версия формата                           : Version 4 / Version 2
Размер файла                             : 7,48 Гбайт
Продолжительность                        : 2 ч. 23 м.
Общий поток                              : 7439 Кбит/сек
Название фильма                          : MAZE_RUNNER_T_DEATH_CURE_BDRip_720p-BLUEBIRD
Дата кодирования                         : UTC 2018-04-12 18:24:01
Программа кодирования                    : mkvmerge v6.9.1 ('Blue Panther') 32bit built on Apr 18 2014 18:15:44
Библиотека кодирования                   : libebml v1.3.0 + libmatroska v1.4.1

Видео
Идентификатор                            : 1
Формат                                   : AVC
Формат/Информация                        : Advanced Video Codec
Профиль формата                          : High@L4.1
Настройки формата                        : CABAC / 9 Ref Frames
Параметр CABAC формата                   : Да
Параметр RefFrames формата               : 9 кадров
Идентификатор кодека                     : V_MPEG4/ISO/AVC
Продолжительность                        : 2 ч. 23 м.
Битрейт                                  : 6000 Кбит/сек
Ширина                                   : 1280 пикселей
Высота                                   : 534 пикселя
Соотношение сторон                       : 2,40:1
Режим частоты кадров                     : Постоянный
Частота кадров                           : 23,976 (24000/1001) кадра/сек
Цветовое пространство                    : YUV
Субдискретизация насыщенности            : 4:2:0
Битовая глубина                          : 8 бит
Тип развёртки                            : Прогрессивная
Бит/(Пиксели*Кадры)                      : 0.366
Размер потока                            : 5,81 Гбайт (78%)
Заголовок                                : MAZE_RUNNER_T_DEATH_CURE_BDRip_720p-BLUEBIRD
Библиотека кодирования                   : x264 core 155 r2867+74 66b5600 t_mod_Custom_2 [8-bit@all X86_64]
Настройки программы                      : cabac=1 / ref=9 / deblock=1:-3:-3 / analyse=0x3:0x133 / me=umh / subme=11 / psy=1 / fade_compensate=0.00 / psy_rd=0.90:0.10 / mixed_ref=1 / me_range=32 / chroma_me=1 / trellis=2 / 8x8dct=1 / cqm=0 / deadzone=21,11 / fast_pskip=0 / chroma_qp_offset=-4 / threads=12 / lookahead_threads=2 / sliced_threads=0 / nr=0 / decimate=1 / interlaced=0 / bluray_compat=0 / constrained_intra=0 / fgo=0 / bframes=9 / b_pyramid=2 / b_adapt=2 / b_bias=0 / direct=3 / weightb=1 / open_gop=0 / weightp=2 / keyint=250 / keyint_min=23 / scenecut=40 / intra_refresh=0 / rc_lookahead=30 / rc=2pass / mbtree=0 / bitrate=6000 / ratetol=2.0 / qcomp=0.70 / qpmin=0:0:0 / qpmax=69:69:69 / qpstep=4 / cplxblur=20.0 / qblur=0.5 / vbv_maxrate=24000 / vbv_bufsize=24000 / nal_hrd=none / filler=0 / ip_ratio=1.40 / pb_ratio=1.30 / aq=3:1.00 / aq-sensitivity=10.00 / aq-factor=1.00:1.00:1.00 / aq2=0 / aq3=2:[0.50:0.50]:[0.50:0.50]:[0.50:0.50]:[0.50:0.50] / aq3-sensitivity=10.00 / aq3-factor=[1.00:1.00]:[1.00:1.00]:[1.00:1.00] / aq3-boundary=192:64:24
Язык                                     : English
Default                                  : Да
Forced                                   : Нет

Аудио
Идентификатор                            : 2
Формат                                   : DTS
Формат/Информация                        : Digital Theater Systems
Идентификатор кодека                     : A_DTS
Продолжительность                        : 2 ч. 23 м.
Вид битрейта                             : Постоянный
Битрейт                                  : 1509 Кбит/сек
Каналы                                   : 6 каналов
Расположение каналов                     : Front: L C R, Side: L R, LFE
Частота                                  : 48,0 КГц
Частота кадров                           : 93,750 кадра/сек (512 SPF)
Битовая глубина                          : 24 бит
Метод сжатия                             : С потерями
Размер потока                            : 1,52 Гбайт (20%)
Заголовок                                : [ORIGINAL] DTS 5.1 @ 1509 kbps
Язык                                     : English
Default                                  : Да
Forced                                   : Нет

Текст #1
Идентификатор                            : 3
Формат                                   : UTF-8
Идентификатор кодека                     : S_TEXT/UTF8
Идентификатор кодека/Информация          : UTF-8 Plain Text
Заголовок                                : Full-length
Язык                                     : Russian
Default                                  : Да
Forced                                   : Нет

Текст #2
Идентификатор                            : 4
Формат                                   : UTF-8
Идентификатор кодека                     : S_TEXT/UTF8
Идентификатор кодека/Информация          : UTF-8 Plain Text
Заголовок                                : Full-length
Язык                                     : Ukrainian
Default                                  : Нет
Forced                                   : Нет

Текст #3
Идентификатор                            : 5
Формат                                   : UTF-8
Идентификатор кодека                     : S_TEXT/UTF8
Идентификатор кодека/Информация          : UTF-8 Plain Text
Заголовок                                : Full-length
Язык                                     : English
Default                                  : Нет
Forced                                   : Нет

Меню
00:00:00.000                             : en:00:00:00.000
00:11:31.608                             : en:00:11:31.608
00:15:59.750                             : en:00:15:59.750
00:20:08.457                             : en:00:20:08.457
00:24:34.890                             : en:00:24:34.890
00:30:40.547                             : en:00:30:40.547
00:36:47.330                             : en:00:36:47.330
00:43:15.343                             : en:00:43:15.343
00:48:06.342                             : en:00:48:06.342
00:55:17.397                             : en:00:55:17.397
01:02:42.926                             : en:01:02:42.926
01:07:14.489                             : en:01:07:14.489
01:11:56.062                             : en:01:11:56.062
01:15:48.210                             : en:01:15:48.210
01:23:20.329                             : en:01:23:20.329
01:29:45.422                             : en:01:29:45.422
01:34:00.593                             : en:01:34:00.593
01:40:09.795                             : en:01:40:09.795
01:43:33.082                             : en:01:43:33.082
01:53:38.645                             : en:01:53:38.645
01:59:43.885                             : en:01:59:43.885
02:04:49.399                             : en:02:04:49.399
02:10:03.087                             : en:02:10:03.087
02:18:03.859                             : en:02:18:03.859



Скриншоты:
[+] Всего файлов в раздаче - 1:
MAZE_RUNNER_T_DEATH_CURE_BDRip_720p-BLUEBIRD.mkv7.48 GB

Текущая раздача:
ДатаКомментарии    РазмерПиры
2018-04-13 U Бегущий в лабиринте: Лекарство от смерти / Maze Runner: The Death Cure (2018) BDRip 720p | Sub 7.48 GB ↑ 49 ↓ 63

Показать еще раздачи по запросу бегущий:
Сегодня U Бегущий в лабиринте: Лекарство от смерти / Maze Runner: The Death Cure (2018) BDRip 720p от Scarabey | iTunes 4.90 GB ↑ 25 ↓ 16
Сегодня U Бегущий в лабиринте: Лекарство от смерти / Maze Runner: The Death Cure (2018) BDRip-AVC от HELLYWOOD | iTunes 2.73 GB ↑ 35 ↓ 10
2018-04-22 U Бегущий в лабиринте: Лекарство от смерти / Maze Runner: The Death Cure (2018) BDRip 1080p | D, L | iTunes 16.98 GB ↑ 67 ↓ 95
2018-04-22 U Бегущий в лабиринте: Лекарство от смерти / Maze Runner: The Death Cure (2018) BDRip-AVC от HELLYWOOD | iTunes 1.39 GB ↑ 38 ↓ 36
2018-04-21 U Бегущий в лабиринте: Лекарство от смерти / Maze Runner: The Death Cure (2018) HDRip от Scarabey | iTunes 1.45 GB ↑ 280 ↓ 31
2018-04-21 U Бегущий в лабиринте: Лекарство от смерти / Maze Runner: The Death Cure (2018) BDRip от ExKinoRay | iTunes 2.12 GB ↑ 192 ↓ 61
2018-04-21 U Бегущий в лабиринте: Лекарство от смерти / Maze Runner: The Death Cure (2018) BDRip-AVC от HELLYWOOD | iTunes 1.39 GB ↑ 152 ↓ 69

Отзывы
Зарегистрируйтесь чтобы добавить комментарий.
Обратная связь
Copyleft ©