↑↓Torrent.by
Поиск
Логин: Регистрация
Пароль: Восстановить пароль
Загрузка...

Немой / Mute (2018) WEBRip | Jaskier

Скачать nemoy-mute-2018-webrip-jaskier.torrent
U Магнитная ссылка Размер: 1.46 GB Раздают: 236 Качают: 90 Добавлен: 2018-04-13 14:42:31
Немой / Mute (2018) WEBRip | Jaskier

Название: Немой
Оригинальное название: Mute
Год выхода: 2018
Жанр:  Фантастика, триллер, детектив
Режиссер: Дункан Джонс
В ролях: Леви Эйзенблаттер, Рози Шоу, Ойген Баудер, Ливия Маттес, Джара Мария Андерс, Кэролайн Петерс, Лаура Де Бур, Грегуар Грос, Александр Скарсгард, Сейнеб Салех

О фильме:
Берлин, 2052 год. Лео Байлер — немой бармен, и у него больше нет причин для существования: его любимая женщина исчезает. Поиски приводят Лео в подземный город, где он знакомится с парой американских хирургов. Лео не может понять, кем являются его новые знакомые — то ли они могут ему помочь, то ли ему стоит бежать от них подальше.

Страна: США
Продолжительность: 02:05:44
Перевод: Профессиональный многоголосый закадровый (студия Jaskier) [без цензуры]

Файл
Кодек: XviD | Avi
Качество: WEBRip
Видео: ~ 1265 kbps, 704x352, 23.976 fps
Аудио Rus: AC3, 384 kb/s (6 ch)
Субтитры: отсутствуют
Без рекламы.


[+] MI

Общее
Полное имя                               : F:ЗагрузкиMute.2018.WEBRip.Jaskier.avi
Формат                                   : AVI
Формат/Информация                        : Audio Video Interleave
Размер файла                             : 1,46 Гбайт
Продолжительность                        : 2 ч. 5 м.
Общий поток                              : 1659 Кбит/сек
Программа кодирования                    : VirtualDubMod 1.5.10.3 | www.virtualdub-fr.org || (build 2550/release)
Библиотека кодирования                   : VirtualDubMod build 2550/release

Видео
Идентификатор                            : 0
Формат                                   : MPEG-4 Visual
Профиль формата                          : Advanced Simple@L5
Настройки формата                        : BVOP2 / Custom Matrix
Параметр BVOP формата                    : 2
Параметр QPel формата                    : Нет
Параметр GMC формата                     : Без точки перехода
Параметр матрицы формата                 : Выборочная
Идентификатор кодека                     : XVID
Идентификатор кодека/Подсказка           : XviD
Продолжительность                        : 2 ч. 5 м.
Битрейт                                  : 1265 Кбит/сек
Ширина                                   : 704 пикселя
Высота                                   : 352 пикселя
Соотношение сторон                       : 2,000
Частота кадров                           : 24,000 кадра/сек
Цветовое пространство                    : YUV
Субдискретизация насыщенности            : 4:2:0
Битовая глубина                          : 8 бит
Тип развёртки                            : Прогрессивная
Метод сжатия                             : С потерями
Бит/(Пиксели*Кадры)                      : 0.213
Размер потока                            : 1,11 Гбайт (76%)
Библиотека кодирования                   : XviD 73

Аудио
Идентификатор                            : 1
Формат                                   : AC-3
Формат/Информация                        : Audio Coding 3
Идентификатор кодека                     : 2000
Продолжительность                        : 2 ч. 5 м.
Вид битрейта                             : Постоянный
Битрейт                                  : 384 Кбит/сек
Каналы                                   : 6 каналов
Расположение каналов                     : Front: L C R, Side: L R, LFE
Частота                                  : 48,0 КГц
Частота кадров                           : 31,250 кадров/сек (1536 SPF)
Битовая глубина                          : 16 бит
Метод сжатия                             : С потерями
Размер потока                            : 345 Мбайт (23%)
Выравнивание                             : Разделение по промежуткам
Продолжительность промежутка             : 42  мс. (1,00 видеокадр)
Время предзагрузки промежутка            : 500  мс.




Скриншоты:
[+] Всего файлов в раздаче - 1:
Mute.2018.WEBRip.Jaskier.avi1.46 GB

Текущая раздача:
ДатаКомментарии    РазмерПиры
2018-04-13 U Немой / Mute (2018) WEBRip | Jaskier 1.46 GB ↑ 236 ↓ 90

Показать еще раздачи по запросу немой:
2018-04-13 U Немой / Mute (2018) WEBRip 1080p | Jaskier 3.68 GB ↑ 132 ↓ 61
2018-03-19 U Немой / Mute (2018) WEBRip-AVC от New-Team | NewStudio 1.43 GB ↑ 53 ↓ 23
2018-03-19 U Немой / Mute (2018) WEBRip-AVC от New-Team | NewStudio 2.20 GB ↑ 54 ↓ 11
2018-03-03 U Немой / Mute (2018) WEBRip | NewStudio 2.10 GB ↑ 141 ↓ 67
2018-03-02 U Немой / Mute (2018) WEBRip 720p | NewStudio 7.64 GB ↑ 114 ↓ 84
2018-02-26 U Немой / Mute (2018) WEBRip от ExKinoRay | L 790.28 MB ↑ 75 ↓ 19
2018-02-26 U Немой / Mute (2018) WEBRip 1080p | Jimmy J 3.54 GB ↑ 65 ↓ 8

Отзывы
Зарегистрируйтесь чтобы добавить комментарий.
Обратная связь
Copyleft ©