↑↓Torrent.by
Поиск
Логин: Регистрация
Пароль: Восстановить пароль
Загрузка...

Немой / Mute (2018) WEBRip 1080p | Jaskier

Скачать nemoy-mute-2018-webrip-1080p-jaskier.torrent
U Магнитная ссылка Размер: 3.68 GB Раздают: 131 Качают: 62 Добавлен: 2018-04-13 14:42:39
Немой / Mute (2018) WEBRip 1080p | Jaskier

Название: Немой
Оригинальное название: Mute
Год выхода: 2018
Жанр:  Фантастика, триллер, детектив
Режиссер: Дункан Джонс
В ролях: Леви Эйзенблаттер, Рози Шоу, Ойген Баудер, Ливия Маттес, Джара Мария Андерс, Кэролайн Петерс, Лаура Де Бур, Грегуар Грос, Александр Скарсгард, Сейнеб Салех

О фильме:
Берлин, 2052 год. Лео Байлер — немой бармен, и у него больше нет причин для существования: его любимая женщина исчезает. Поиски приводят Лео в подземный город, где он знакомится с парой американских хирургов. Лео не может понять, кем являются его новые знакомые — то ли они могут ему помочь, то ли ему стоит бежать от них подальше.

Страна: США
Продолжительность: 02:05:44
Перевод: Профессиональный многоголосый закадровый (студия Jaskier) [без цензуры]

Файл
Формат: MKV
Качество: WEBRip 1080p
Видео:  3480 kb/s, 1920x1080, 23.976 fps
Аудио:  Russian / English: AC3, 384 kb/s (6 ch)
Субтитры: английские (full)
Без рекламы.


[+] MI


Общее
Уникальный идентификатор                 : 243188469199007985125611204090783550977 (0xB6F4653F39EC8752B4EC42772CDF4E01)
Полное имя                               : F:ЗагрузкиMute.2018.1080p.WEBRip.NF.Jaskier.mkv
Формат                                   : Matroska
Версия формата                           : Version 2
Размер файла                             : 3,68 Гбайт
Продолжительность                        : 2 ч. 6 м.
Режим общего битрейта                    : Переменный
Общий поток                              : 4158 Кбит/сек
Дата кодирования                         : UTC 2018-04-13 02:17:04
Программа кодирования                    : mkvmerge v7.8.0 ('River Man') 32bit built on Apr  3 2015 12:11:22
Библиотека кодирования                   : libebml v1.3.1 + libmatroska v1.4.2

Видео
Идентификатор                            : 1
Формат                                   : AVC
Формат/Информация                        : Advanced Video Codec
Профиль формата                          : Main@L4
Настройки формата                        : CABAC / 3 Ref Frames
Параметр CABAC формата                   : Да
Параметр RefFrames формата               : 3 кадра
Идентификатор кодека                     : V_MPEG4/ISO/AVC
Продолжительность                        : 2 ч. 6 м.
Вид битрейта                             : Переменный
Битрейт                                  : 3307 Кбит/сек
Номинальный битрейт                      : 3480 Кбит/сек
Максимальный битрейт                     : 5220 Кбит/сек
Ширина                                   : 1920 пикселей
Высота                                   : 1080 пикселей
Соотношение сторон                       : 16:9
Режим частоты кадров                     : Постоянный
Частота кадров                           : 24,000 кадра/сек
Цветовое пространство                    : YUV
Субдискретизация насыщенности            : 4:2:0
Битовая глубина                          : 8 бит
Тип развёртки                            : Прогрессивная
Бит/(Пиксели*Кадры)                      : 0.066
Размер потока                            : 2,93 Гбайт (80%)
Библиотека кодирования                   : x264 core 148 r2714 2daf636
Настройки программы                      : cabac=1 / ref=3 / deblock=1:0:0 / analyse=0x1:0x111 / me=umh / subme=10 / psy=1 / psy_rd=1.00:0.00 / mixed_ref=1 / me_range=24 / chroma_me=1 / trellis=2 / 8x8dct=0 / cqm=0 / deadzone=21,11 / fast_pskip=1 / chroma_qp_offset=-2 / threads=8 / lookahead_threads=1 / sliced_threads=0 / nr=0 / decimate=1 / interlaced=0 / bluray_compat=0 / stitchable=1 / constrained_intra=0 / bframes=2 / b_pyramid=0 / b_adapt=2 / b_bias=0 / direct=3 / weightb=1 / open_gop=0 / weightp=2 / keyint=48 / keyint_min=25 / scenecut=0 / intra_refresh=0 / rc_lookahead=48 / rc=2pass / mbtree=1 / bitrate=3480 / ratetol=1.0 / qcomp=0.50 / qpmin=6 / qpmax=51 / qpstep=4 / cplxblur=20.0 / qblur=0.5 / vbv_maxrate=5220 / vbv_bufsize=6960 / nal_hrd=vbr / filler=0 / ip_ratio=1.40 / aq=1:1.00
Язык                                     : English
Default                                  : Да
Forced                                   : Нет

Аудио #1
Идентификатор                            : 2
Формат                                   : AC-3
Формат/Информация                        : Audio Coding 3
Идентификатор кодека                     : A_AC3
Продолжительность                        : 2 ч. 6 м.
Вид битрейта                             : Постоянный
Битрейт                                  : 384 Кбит/сек
Каналы                                   : 6 каналов
Расположение каналов                     : Front: L C R, Side: L R, LFE
Частота                                  : 48,0 КГц
Частота кадров                           : 31,250 кадров/сек (1536 SPF)
Битовая глубина                          : 16 бит
Метод сжатия                             : С потерями
Размер потока                            : 348 Мбайт (9%)
Заголовок                                : Jaskier
Язык                                     : Russian
Default                                  : Да
Forced                                   : Нет

Аудио #2
Идентификатор                            : 3
Формат                                   : AC-3
Формат/Информация                        : Audio Coding 3
Идентификатор кодека                     : A_AC3
Продолжительность                        : 2 ч. 6 м.
Вид битрейта                             : Постоянный
Битрейт                                  : 384 Кбит/сек
Каналы                                   : 6 каналов
Расположение каналов                     : Front: L C R, Side: L R, LFE
Частота                                  : 48,0 КГц
Частота кадров                           : 31,250 кадров/сек (1536 SPF)
Битовая глубина                          : 16 бит
Метод сжатия                             : С потерями
Размер потока                            : 348 Мбайт (9%)
Язык                                     : English
Default                                  : Нет
Forced                                   : Нет

Текст
Идентификатор                            : 4
Формат                                   : UTF-8
Идентификатор кодека                     : S_TEXT/UTF8
Идентификатор кодека/Информация          : UTF-8 Plain Text
Язык                                     : English
Default                                  : Нет
Forced                                   : Нет




Скриншоты:
[+] Всего файлов в раздаче - 1:
Mute.2018.1080p.WEBRip.NF.Jaskier.mkv3.68 GB

Текущая раздача:
ДатаКомментарии    РазмерПиры
2018-04-13 U Немой / Mute (2018) WEBRip 1080p | Jaskier 3.68 GB ↑ 131 ↓ 62

Показать еще раздачи по запросу немой:
2018-04-13 U Немой / Mute (2018) WEBRip | Jaskier 1.46 GB ↑ 237 ↓ 90
2018-03-19 U Немой / Mute (2018) WEBRip-AVC от New-Team | NewStudio 1.43 GB ↑ 53 ↓ 23
2018-03-19 U Немой / Mute (2018) WEBRip-AVC от New-Team | NewStudio 2.20 GB ↑ 54 ↓ 11
2018-03-03 U Немой / Mute (2018) WEBRip | NewStudio 2.10 GB ↑ 141 ↓ 67
2018-03-02 U Немой / Mute (2018) WEBRip 720p | NewStudio 7.64 GB ↑ 114 ↓ 84
2018-02-26 U Немой / Mute (2018) WEBRip от ExKinoRay | L 790.28 MB ↑ 76 ↓ 19
2018-02-26 U Немой / Mute (2018) WEBRip 1080p | Jimmy J 3.54 GB ↑ 65 ↓ 8

Отзывы
Зарегистрируйтесь чтобы добавить комментарий.
Обратная связь
Copyleft ©