↑↓Torrent.by
Поиск
Логин: Регистрация
Пароль: Восстановить пароль
Загрузка...

Пятьдесят оттенков свободы / Fifty Shades Freed (2018) WEB-DL 720p от ExKinoRay | iTunes

Скачать pyatdesyat-ottenkov-svobody-fifty-shades-freed-2018-web-dl-720p-ot-exkinoray-itunes.torrent
U Магнитная ссылка Размер: 2.91 GB Раздают: 112 Качают: 83 Добавлен: 2018-04-13 16:35:23
Пятьдесят оттенков свободы / Fifty Shades Freed (2018) WEB-DL 720p от ExKinoRay | iTunes

Название: Пятьдесят оттенков свободы
Оригинальное название: Fifty Shades Freed
Год выхода: 2018
Жанр: Триллер, драма, мелодрама
Режиссер: Джеймс Фоули
В ролях: Дакота Джонсон, Джейми Дорнан, Эрик Джонсон, Элоиза Мамфорд, Рита Ора, Люк Граймс, Виктор Расук, Макс Мартини, Дженнифер Или, Марша Гей Харден

О фильме:
Кристиан и Анастейша поженились и живут в своё удовольствие, наслаждаясь обществом друг друга. Однако жизнь новоиспечённой миссис Грей находится в опасности, поскольку объявляется недруг, который собирается мстить, используя свою богатую фантазию. Призраки прошлого Кристиана вновь вернулись, а тучи над супругами сгущаются всё сильнее.

Страна: США
Студия: Universal Pictures, Moving Picture Company, The
Продолжительность: 01:45:13
Перевод: Дублированный | iTunes

Качество: WEB-DL 720p
Видео: MPEG-4 AVC, 1280x536, 3184 Kbit/s, 29.970 fps
Звук:
Аудио #01: 48 kHz, AC3, 5.1, 384 Kbps | iTunes | RUS |
Аудио #02: 48 kHz, AC3, 5.1, 384 Kbps | Оригинал |  ENG |
Субтитры: Английские

Релиз: Автор релиза:


[+] MI
General
Unique ID                   : 60990687519187752862610517774265846086 (0x2DE2610F76880677A89421F6A3E58946)
Complete name               : C:Video111Fifty.Shades.Freed.2018.WEB-DL.720p.ExKinoRay.mkv
Format                      : Matroska
Format version              : Version 4 / Version 2
File size                   : 2.91 GiB
Duration                    : 1 h 45 min
Overall bit rate            : 3 953 kb/s
Movie name                  : Fifty Shades Freed 2018 from ExKinoRay
Encoded date                : UTC 2018-04-13 09:38:14
Writing application         : mkvmerge v22.0.0 ('At The End Of The World') 64-bit
Writing library             : libebml v1.3.5 + libmatroska v1.4.8

Video
ID                          : 1
Format                      : AVC
Format/Info                 : Advanced Video Codec
Format profile              : High@L4.1
Format settings             : CABAC / 4 Ref Frames
Format settings, CABAC      : Yes
Format settings, ReFrames   : 4 frames
Codec ID                    : V_MPEG4/ISO/AVC
Duration                    : 1 h 45 min
Bit rate                    : 3 184 kb/s
Width                       : 1 280 pixels
Height                      : 536 pixels
Display aspect ratio        : 2.40:1
Frame rate mode             : Constant
Frame rate                  : 29.970 (30000/1001) FPS
Color space                 : YUV
Chroma subsampling          : 4:2:0
Bit depth                   : 8 bits
Scan type                   : Progressive
Bits/(Pixel*Frame)          : 0.155
Stream size                 : 2.34 GiB (81%)
Language                    : English
Default                     : Yes
Forced                      : No
Color range                 : Limited
Color primaries             : BT.709
Transfer characteristics    : BT.709
Matrix coefficients         : BT.709

Audio #1
ID                          : 2
Format                      : AC-3
Format/Info                 : Audio Coding 3
Codec ID                    : A_AC3
Duration                    : 1 h 45 min
Bit rate mode               : Constant
Bit rate                    : 384 kb/s
Channel(s)                  : 6 channels
Channel positions           : Front: L C R, Side: L R, LFE
Sampling rate               : 48.0 kHz
Frame rate                  : 31.250 FPS (1536 SPF)
Bit depth                   : 16 bits
Compression mode            : Lossy
Stream size                 : 289 MiB (10%)
Title                       : iTunes
Language                    : Russian
Service kind                : Complete Main
Default                     : Yes
Forced                      : Yes

Audio #2
ID                          : 3
Format                      : AC-3
Format/Info                 : Audio Coding 3
Codec ID                    : A_AC3
Duration                    : 1 h 45 min
Bit rate mode               : Constant
Bit rate                    : 384 kb/s
Channel(s)                  : 6 channels
Channel positions           : Front: L C R, Side: L R, LFE
Sampling rate               : 48.0 kHz
Frame rate                  : 31.250 FPS (1536 SPF)
Bit depth                   : 16 bits
Compression mode            : Lossy
Stream size                 : 289 MiB (10%)
Title                       : Original
Language                    : English
Service kind                : Complete Main
Default                     : No
Forced                      : No

Text
ID                          : 4
Format                      : UTF-8
Codec ID                    : S_TEXT/UTF8
Codec ID/Info               : UTF-8 Plain Text
Duration                    : 1 h 38 min
Bit rate                    : 47 b/s
Count of elements           : 1118
Stream size                 : 34.4 KiB (0%)
Title                       : Full
Language                    : English
Default                     : No
Forced                      : No

Menu
00:00:00.000                : en:1
00:09:15.000                : en:2
00:18:58.000                : en:3
00:31:49.000                : en:4
00:38:14.000                : en:5
00:48:11.000                : en:6
00:58:05.000                : en:7
01:08:43.000                : en:8
01:16:24.000                : en:9
01:26:19.000                : en:10
01:41:35.000                : en:11
01:49:43.000                : en:12
02:08:22.000                : en:13



Скриншоты:
[+] Всего файлов в раздаче - 1:
Fifty.Shades.Freed.2018.WEB-DL.720p.ExKinoRay.mkv2.91 GB

Текущая раздача:
ДатаКомментарии    РазмерПиры
2018-04-13 U Пятьдесят оттенков свободы / Fifty Shades Freed (2018) WEB-DL 720p от ExKinoRay | iTunes 2.91 GB ↑ 112 ↓ 83

Показать еще раздачи по запросу пятьдесят:
2018-04-16 U Пятьдесят оттенков свободы / Fifty Shades Freed (2018) WEB-DLRip от Scarabey | iTunes 1.45 GB ↑ 42 ↓ 12
2018-04-14 U Пятьдесят оттенков свободы / Fifty Shades Freed (2018) WEB-DLRip-AVC от OlLanDGroup | iTunes 745.49 MB ↑ 55 ↓ 11
2018-04-13 U Пятьдесят оттенков свободы / Fifty Shades Freed (2018) WEB-DLRip от MegaPeer | iTunes 746.67 MB ↑ 71 ↓ 53
2018-04-13 U Пятьдесят оттенков свободы / Fifty Shades Freed (2018) WEB-DLRip | iTunes 699.51 MB ↑ 71 ↓ 35
2018-04-13 U Пятьдесят оттенков свободы / Fifty Shades Freed (2018) WEB-DL 1080p от ExKinoRay | iTunes 4.62 GB ↑ 158 ↓ 152
2018-04-13 U Пятьдесят оттенков свободы / Fifty Shades Freed (2018) WEB-DLRip от MegaPeer | iTunes 1.46 GB ↑ 115 ↓ 115
2017-05-26 U На пятьдесят оттенков темнее / Fifty Shades Darker (2017) BDRip-AVC от ExKinoRay | Расширенная версия | Лицензия 2.26 GB ↑ 533 ↓ 61

Отзывы
Зарегистрируйтесь чтобы добавить комментарий.
Обратная связь
Copyleft ©