↑↓Torrent.by
Поиск
Логин: Регистрация
Пароль: Восстановить пароль
Загрузка...

Бегущий в лабиринте: Лекарство от смерти / Maze Runner: The Death Cure (2018) BDRip 720p от ExKinoRay | Line

Скачать beguschiy-v-labirinte-lekarstvo-ot-smerti-maze-runner-the-death-cure-2018-bdrip-720p-exkinoray-line.torrent
U Магнитная ссылка Размер: 8.30 GB Раздают: 394 Качают: 449 Добавлен: 2018-04-14 07:46:12
Бегущий в лабиринте: Лекарство от смерти / Maze Runner: The Death Cure (2018) BDRip 720p от ExKinoRay | Line

Название: Бегущий в лабиринте: Лекарство от смерти
Оригинальное название: Maze Runner: The Death Cure
Год выхода: 2018
Жанр: Фантастика, боевик, триллер
Режиссер: Уэс Болл
В ролях: Дилан О`Брайэн, Ки Хонг Ли, Кая Скоделарио, Уилл Поултер, Томас Броди Сэнгстер, Патришия Кларксон, Амл Амин, Крис Шеффилд, Карл Грин

О фильме:
Томас возглавляет отряд выживших глейдеров, чтобы выполнить последнюю и самую опасную миссию. Ради спасения своих друзей они должны проникнуть в легендарный Последний город, смертоносный лабиринт, контролируемый ПОРОКом. Каждый, кто выживет там, наконец-то получит ответы на все вопросы, которые мучили глейдеров с момента попадания в лабиринт.

Страна: США
Студия: 20th Century Fox, Gotham Group, Temple Hill Entertainment
Продолжительность: 02:23:52
Перевод: Дублированный | Чистый звук

Качество: BDRip 720p
Видео: MPEG-4 AVC, 1280x534, 6359 Kbit/s, 23.976 fps
Звук:
Аудио #01: 48 kHz, AC3, 2.0, 384 Kbps | Дублированный | RUS |
Аудио #02: 48 kHz, DTS, 5.1, 1510 Kbps | Оригинал |  ENG |
Субтитры: Русские (full), украинские (full), английские

Релиз: Автор релиза:

Скачать :


[+] MI
General
Unique ID                   : 335952358788762713900838086368739562797 (0xFCBE121DD80345B28E35E64F0D01952D)
Complete name               : C:Video111Maze.Runner.The.Death.Cure.2018.BDRip.720p.ExKinoRay.mkv
Format                      : Matroska
Format version              : Version 4 / Version 2
File size                   : 8.30 GiB
Duration                    : 2 h 23 min
Overall bit rate            : 8 255 kb/s
Movie name                  : Maze Runner: The Death Cure 2018 from ExKinoRay
Encoded date                : UTC 2018-04-13 22:21:28
Writing application         : mkvmerge v22.0.0 ('At The End Of The World') 64-bit
Writing library             : libebml v1.3.5 + libmatroska v1.4.8

Video
ID                          : 1
Format                      : AVC
Format/Info                 : Advanced Video Codec
Format profile              : High@L4.1
Format settings             : CABAC / 12 Ref Frames
Format settings, CABAC      : Yes
Format settings, ReFrames   : 12 frames
Codec ID                    : V_MPEG4/ISO/AVC
Duration                    : 2 h 23 min
Bit rate                    : 6 359 kb/s
Width                       : 1 280 pixels
Height                      : 534 pixels
Display aspect ratio        : 2.40:1
Frame rate mode             : Constant
Frame rate                  : 23.976 (24000/1001) FPS
Color space                 : YUV
Chroma subsampling          : 4:2:0
Bit depth                   : 8 bits
Scan type                   : Progressive
Bits/(Pixel*Frame)          : 0.388
Stream size                 : 6.39 GiB (77%)
Writing library             : x264 core 155 r2901 7d0ff22
Encoding settings           : cabac=1 / ref=12 / deblock=1:-3:-3 / analyse=0x3:0x133 / me=umh / subme=11 / psy=1 / psy_rd=1.05:0.00 / mixed_ref=1 / me_range=32 / chroma_me=1 / trellis=2 / 8x8dct=1 / cqm=0 / deadzone=21,11 / fast_pskip=0 / chroma_qp_offset=-2 / threads=12 / lookahead_threads=3 / sliced_threads=0 / nr=0 / decimate=0 / interlaced=0 / bluray_compat=0 / constrained_intra=0 / bframes=11 / b_pyramid=2 / b_adapt=2 / b_bias=0 / direct=3 / weightb=1 / open_gop=0 / weightp=2 / keyint=250 / keyint_min=24 / scenecut=40 / intra_refresh=0 / rc_lookahead=250 / rc=crf / mbtree=0 / crf=14.8 / qcomp=0.60 / qpmin=0 / qpmax=69 / qpstep=4 / vbv_maxrate=62500 / vbv_bufsize=78125 / crf_max=0.0 / nal_hrd=none / filler=0 / ip_ratio=1.30 / pb_ratio=1.20 / aq=3:0.80 / zones=198536,206975,crf=21
Language                    : English
Default                     : Yes
Forced                      : No

Audio #1
ID                          : 2
Format                      : AC-3
Format/Info                 : Audio Coding 3
Codec ID                    : A_AC3
Duration                    : 2 h 23 min
Bit rate mode               : Constant
Bit rate                    : 384 kb/s
Channel(s)                  : 2 channels
Channel positions           : Front: L R
Sampling rate               : 48.0 kHz
Frame rate                  : 31.250 FPS (1536 SPF)
Bit depth                   : 16 bits
Compression mode            : Lossy
Stream size                 : 395 MiB (5%)
Title                       : Dub
Language                    : Russian
Service kind                : Complete Main
Default                     : Yes
Forced                      : Yes

Audio #2
ID                          : 3
Format                      : DTS
Format/Info                 : Digital Theater Systems
Codec ID                    : A_DTS
Duration                    : 2 h 23 min
Bit rate mode               : Constant
Bit rate                    : 1 509 kb/s
Channel(s)                  : 6 channels
Channel positions           : Front: L C R, Side: L R, LFE
Sampling rate               : 48.0 kHz
Frame rate                  : 93.750 FPS (512 SPF)
Bit depth                   : 24 bits
Compression mode            : Lossy
Stream size                 : 1.52 GiB (18%)
Title                       : Original
Language                    : English
Default                     : No
Forced                      : No

Text #1
ID                          : 4
Format                      : UTF-8
Codec ID                    : S_TEXT/UTF8
Codec ID/Info               : UTF-8 Plain Text
Duration                    : 2 h 22 min
Bit rate                    : 55 b/s
Count of elements           : 1389
Stream size                 : 57.6 KiB (0%)
Title                       : Full
Language                    : Russian
Default                     : No
Forced                      : No

Text #2
ID                          : 5
Format                      : UTF-8
Codec ID                    : S_TEXT/UTF8
Codec ID/Info               : UTF-8 Plain Text
Duration                    : 2 h 20 min
Bit rate                    : 49 b/s
Count of elements           : 1397
Stream size                 : 50.4 KiB (0%)
Title                       : Full
Language                    : Ukrainian
Default                     : No
Forced                      : No

Text #3
ID                          : 6
Format                      : UTF-8
Codec ID                    : S_TEXT/UTF8
Codec ID/Info               : UTF-8 Plain Text
Duration                    : 2 h 15 min
Bit rate                    : 35 b/s
Count of elements           : 1475
Stream size                 : 35.5 KiB (0%)
Title                       : Full
Language                    : English
Default                     : No
Forced                      : No

Text #4
ID                          : 7
Format                      : UTF-8
Codec ID                    : S_TEXT/UTF8
Codec ID/Info               : UTF-8 Plain Text
Duration                    : 2 h 15 min
Bit rate                    : 40 b/s
Count of elements           : 1688
Stream size                 : 40.6 KiB (0%)
Title                       : SDH
Language                    : English
Default                     : No
Forced                      : No

Menu
00:00:00.000                : en:Chapter 1
00:11:31.607                : en:Chapter 2
00:15:59.750                : en:Chapter 3
00:20:08.457                : en:Chapter 4
00:24:34.890                : en:Chapter 5
00:30:40.547                : en:Chapter 6
00:36:47.330                : en:Chapter 7
00:43:15.342                : en:Chapter 8
00:48:06.341                : en:Chapter 9
00:55:17.397                : en:Chapter 10
01:02:42.925                : en:Chapter 11
01:07:14.488                : en:Chapter 12
01:11:56.061                : en:Chapter 13
01:15:48.210                : en:Chapter 14
01:23:20.328                : en:Chapter 15
01:29:45.421                : en:Chapter 16
01:34:00.593                : en:Chapter 17
01:40:09.795                : en:Chapter 18
01:43:33.081                : en:Chapter 19
01:53:38.645                : en:Chapter 20
01:59:43.885                : en:Chapter 21
02:04:49.398                : en:Chapter 22
02:10:03.086                : en:Chapter 23
02:18:03.858                : en:Chapter 24



Скриншоты:
[+] Всего файлов в раздаче - 1:
Maze.Runner.The.Death.Cure.2018.BDRip.720p.ExKinoRay.mkv8.30 GB

Текущая раздача:
ДатаКомментарии    РазмерПиры
2018-04-14 U Бегущий в лабиринте: Лекарство от смерти / Maze Runner: The Death Cure (2018) BDRip 720p от ExKinoRay | Line 8.30 GB ↑ 394 ↓ 449

Показать еще раздачи по запросу бегущий:
Сегодня U Бегущий в лабиринте: Лекарство от смерти / Maze Runner: The Death Cure (2018) BDRip 720p от Scarabey | iTunes 4.90 GB ↑ 27 ↓ 13
Сегодня U Бегущий в лабиринте: Лекарство от смерти / Maze Runner: The Death Cure (2018) BDRip-AVC от HELLYWOOD | iTunes 2.73 GB ↑ 36 ↓ 8
2018-04-22 U Бегущий в лабиринте: Лекарство от смерти / Maze Runner: The Death Cure (2018) BDRip 1080p | D, L | iTunes 16.98 GB ↑ 67 ↓ 95
2018-04-22 U Бегущий в лабиринте: Лекарство от смерти / Maze Runner: The Death Cure (2018) BDRip-AVC от HELLYWOOD | iTunes 1.39 GB ↑ 37 ↓ 36
2018-04-21 U Бегущий в лабиринте: Лекарство от смерти / Maze Runner: The Death Cure (2018) HDRip от Scarabey | iTunes 1.45 GB ↑ 279 ↓ 29
2018-04-21 U Бегущий в лабиринте: Лекарство от смерти / Maze Runner: The Death Cure (2018) BDRip от ExKinoRay | iTunes 2.12 GB ↑ 191 ↓ 61
2018-04-21 U Бегущий в лабиринте: Лекарство от смерти / Maze Runner: The Death Cure (2018) BDRip-AVC от HELLYWOOD | iTunes 1.39 GB ↑ 152 ↓ 69

Отзывы
Зарегистрируйтесь чтобы добавить комментарий.
Обратная связь
Copyleft ©