↑↓Torrent.by
Поиск
Логин: Регистрация
Пароль: Восстановить пароль
Загрузка...

Погружение / Submergence (2017) WEB-DL 1080p от ExKinoRay | iTunes

Скачать pogruzhenie-submergence-2017-web-dl-1080p-ot-exkinoray-itunes.torrent
U Магнитная ссылка Размер: 7.47 GB Раздают: 214 Качают: 52 Добавлен: 2018-04-14 07:46:46
Погружение / Submergence (2017) WEB-DL 1080p от ExKinoRay | iTunes

Название: Погружение
Оригинальное название: Submergence
Год выхода: 2017
Жанр: Триллер, драма, мелодрама
Режиссер: Вим Вендерс
В ролях: Джеймс МакЭвой, Алисия Викандер, Александр Сиддиг, Селин Джонс, Реда Катеб, Мохамед Хакимшади, Клементин Баэрт, Адама Барри, Жюльен Буаниш, Лоик Корбери

О фильме:
Он - офицер разведки, она - ученый-океанолог. Ему предстояла смертельно опасная спецоперация в Сомали, ей - глубоководная экспедиция. И теперь, в минуту испытаний пред лицом смерти - в плену у боевиков, в батискафе на глубине океана - все, что у них есть, - это их любовь...

Страна: Германия, Франция, Испания, США
Студия: Backup Media, Green Hummingbird Entertainment, Lila 9th Productions
Продолжительность: 01:51:32
Перевод: Дублированный | iTunes

Качество: WEB-DL 1080p | AMZN Version
Видео: MPEG-4 AVC, 1920x1040, 8979 Kbit/s, 24.000 fps
Звук:
Аудио #01: 48 kHz, AC3, 5.1, 384 Kbps | iTunes | RUS |
Аудио #02: 48 kHz, AC3, 2.0, 224 Kbps | Оригинал |  ENG |

Релиз: Автор релиза:


[+] MI
General
Unique ID                   : 157817306737955159377175704970307847116 (0x76BA81F73EDACF80FC905ABE1F1C43CC)
Complete name               : C:Video111Submergence.2017.AMZN.WEB-DL.1080p.ExKinoRay.mkv
Format                      : Matroska
Format version              : Version 4 / Version 2
File size                   : 7.47 GiB
Duration                    : 1 h 51 min
Overall bit rate mode       : Variable
Overall bit rate            : 9 588 kb/s
Movie name                  : Submergence 2017 AMZN from ExKinoRay
Encoded date                : UTC 2018-04-13 15:31:55
Writing application         : mkvmerge v22.0.0 ('At The End Of The World') 64-bit
Writing library             : libebml v1.3.5 + libmatroska v1.4.8

Video
ID                          : 1
Format                      : AVC
Format/Info                 : Advanced Video Codec
Format profile              : High@L4
Format settings             : CABAC / 4 Ref Frames
Format settings, CABAC      : Yes
Format settings, ReFrames   : 4 frames
Codec ID                    : V_MPEG4/ISO/AVC
Duration                    : 1 h 51 min
Bit rate mode               : Variable
Bit rate                    : 8 979 kb/s
Maximum bit rate            : 15.0 Mb/s
Width                       : 1 920 pixels
Height                      : 1 040 pixels
Display aspect ratio        : 1.85:1
Frame rate mode             : Constant
Frame rate                  : 24.000 FPS
Color space                 : YUV
Chroma subsampling          : 4:2:0
Bit depth                   : 8 bits
Scan type                   : Progressive
Bits/(Pixel*Frame)          : 0.187
Stream size                 : 6.99 GiB (94%)
Default                     : Yes
Forced                      : No
Color range                 : Limited
Color primaries             : BT.709
Transfer characteristics    : BT.709
Matrix coefficients         : BT.709

Audio #1
ID                          : 2
Format                      : AC-3
Format/Info                 : Audio Coding 3
Codec ID                    : A_AC3
Duration                    : 1 h 51 min
Bit rate mode               : Constant
Bit rate                    : 384 kb/s
Channel(s)                  : 6 channels
Channel positions           : Front: L C R, Side: L R, LFE
Sampling rate               : 48.0 kHz
Frame rate                  : 31.250 FPS (1536 SPF)
Bit depth                   : 16 bits
Compression mode            : Lossy
Stream size                 : 306 MiB (4%)
Title                       : iTunes
Language                    : Russian
Service kind                : Complete Main
Default                     : Yes
Forced                      : Yes

Audio #2
ID                          : 3
Format                      : AC-3
Format/Info                 : Audio Coding 3
Codec ID                    : A_AC3
Duration                    : 1 h 51 min
Bit rate mode               : Constant
Bit rate                    : 224 kb/s
Channel(s)                  : 2 channels
Channel positions           : Front: L R
Sampling rate               : 48.0 kHz
Frame rate                  : 31.250 FPS (1536 SPF)
Bit depth                   : 16 bits
Compression mode            : Lossy
Stream size                 : 179 MiB (2%)
Title                       : Original
Language                    : English
Service kind                : Complete Main
Default                     : No
Forced                      : No

Menu
00:00:00.000                : en:Глава 1
00:06:21.375                : en:Глава 2
00:11:59.583                : en:Глава 3
00:18:30.541                : en:Глава 4
00:24:06.249                : en:Глава 5
00:29:33.790                : en:Глава 6
00:36:07.706                : en:Глава 7
00:43:21.789                : en:Глава 8
00:50:57.205                : en:Глава 9
00:56:45.163                : en:Глава 10
01:03:33.746                : en:Глава 11
01:10:18.537                : en:Глава 12
01:15:41.703                : en:Глава 13



Скриншоты:
[+] Всего файлов в раздаче - 1:
Submergence.2017.AMZN.WEB-DL.1080p.ExKinoRay.mkv7.47 GB

Текущая раздача:
ДатаКомментарии    РазмерПиры
2018-04-14 U Погружение / Submergence (2017) WEB-DL 1080p от ExKinoRay | iTunes 7.47 GB ↑ 214 ↓ 52

Показать еще раздачи по запросу погружение:
2018-05-16 U Погружение / Submergence (2017) BDRip от ExKinoRay | iTunes 1.41 GB ↑ 38 ↓ 17
2018-05-09 U Погружение / Submergence (2017) BDRip-AVC от HELLYWOOD | iTunes 1.41 GB ↑ 58 ↓ 19
2018-05-01 U Погружение / Submergence (2017) HDRip от Scarabey | iTunes 1.40 GB ↑ 185 ↓ 17
2018-04-30 U Погружение / Submergence (2017) HDRip от MegaPeer | iTunes 1.40 GB ↑ 173 ↓ 56
2018-04-29 U Погружение / Submergence (2017) BDRip 720p от ExKinoRay | iTunes 5.76 GB ↑ 205 ↓ 57
2018-04-29 U Погружение / Submergence (2017) BDRip 1080p от ExKinoRay | iTunes 8.86 GB ↑ 56 ↓ 61
2018-04-14 U Погружение / Submergence (2017) WEB-DLRip от Scarabey | iTunes 1.45 GB ↑ 85 ↓ 41

Отзывы
Зарегистрируйтесь чтобы добавить комментарий.
Обратная связь
Copyleft ©