↑↓Torrent.by
Поиск
Логин: Регистрация
Пароль: Восстановить пароль
Загрузка...

Пассажир / The Commuter (2018) BDRemux 1080p от MediaClub | HDrezka Studio

Скачать passazhir-the-commuter-2018-bdremux-1080p-ot-mediaclub-hdrezka-studio.torrent
U Магнитная ссылка Размер: 29.76 GB Раздают: 57 Качают: 71 Добавлен: 2018-04-14 07:46:57
Пассажир / The Commuter (2018) BDRemux 1080p от MediaClub | HDrezka Studio

Название: Пассажир
Оригинальное название: The Commuter
Год выхода: 2018
Жанр: Триллер, драма, криминал, детектив
Режиссер: Жаума Кольет-Серра
В ролях: Лиам Нисон, Вера Фармига, Сэм Нилл, Патрик Уилсон, Джонатан Бэнкс, Элизабет МакГоверн, Шазад Латиф, Флоренс Пью, Летишиа Райт, Киллиан Скотт

О фильме:
Жизнь обыкновенного сотрудника страхового агентства Майка состояла из ежедневной работы, которая не приносила ему удовольствия. Уставший мужчина два раз в день должен был совершать поездку в поезде, все пассажиры которого ему казались уже давно знакомыми и привычными. И лишь однажды в толпе он смог разглядеть прекрасную незнакомку, которая проявила инициативу и решила познакомиться с ним. Привлекательная девушка предложила Майку своеобразный эксперимент в результате которого ему просто было необходимо найти определенного человека в переполненном поезде. В случае успешного выполнения задачи он мог получить солидную финансовую награду. А о возможных последствиях поражения доверчивый страховщик даже не поинтересовался. У него было совсем немного времени для принятия правильного решения, потому что красавица могла запросто найти другого претендента на прохождение лабиринта. Вот только последствия в случае согласия могли стать началом огромных проблем.

Страна: Великобритания, США
Студия: Ombra Films, StudioCanal
Продолжительность: 01:44:55
Перевод: Любительский многоголосый, закадровый

Файл
Кодек: h.264
Качество: BDRemux 1080p
Видео: MPEG-4 AVC, 34.7 Mбит/с, 1920x1080, 23,976 кадр/с
Звук:
Русский (AC3, 2 ch, 384 Кбит/с) / Любительский многоголосый (HDRezka Studio)
Английский (TrueHD+Atmos, 8 ch, 4970 Кбит/с)
Субтитры: Русские (от San4340), английские

Семпл

Релиз: | Silverok


[+] MI
General
Unique ID                                : 268035737719647793057952616212400287768 (0xC9A5CE2B0690ED3C307755768549B018)
Complete name                            : D:uTorrentPassazhyr.2018.BDRemux.1080p.MediaClub.mkv
Format                                   : Matroska
Format version                           : Version 4 / Version 2
File size                                : 29.8 GiB
Duration                                 : 1 h 44 min
Overall bit rate mode                    : Variable
Overall bit rate                         : 40.6 Mb/s
Encoded date                             : UTC 2018-04-13 04:33:21
Writing application                      : mkvmerge v19.0.0 ('Brave Captain') 64-bit
Writing library                          : libebml v1.3.5 + libmatroska v1.4.8
Cover                                    : Yes
Attachments                              : cover.jpg

Video
ID                                       : 1
Format                                   : AVC
Format/Info                              : Advanced Video Codec
Format profile                           : High@L4.1
Format settings                          : CABAC / 4 Ref Frames
Format settings, CABAC                   : Yes
Format settings, RefFrames               : 4 frames
Codec ID                                 : V_MPEG4/ISO/AVC
Duration                                 : 1 h 44 min
Bit rate mode                            : Variable
Bit rate                                 : 34.7 Mb/s
Maximum bit rate                         : 37.0 Mb/s
Width                                    : 1 920 pixels
Height                                   : 1 080 pixels
Display aspect ratio                     : 16:9
Frame rate mode                          : Constant
Frame rate                               : 23.976 (24000/1001) FPS
Color space                              : YUV
Chroma subsampling                       : 4:2:0
Bit depth                                : 8 bits
Scan type                                : Progressive
Bits/(Pixel*Frame)                       : 0.699
Stream size                              : 25.5 GiB (86%)
Title                                    : BDRemux by Silverok
Default                                  : Yes
Forced                                   : No

Audio #1
ID                                       : 2
Format                                   : AC-3
Format/Info                              : Audio Coding 3
Codec ID                                 : A_AC3
Duration                                 : 1 h 44 min
Bit rate mode                            : Constant
Bit rate                                 : 384 kb/s
Channel(s)                               : 2 channels
Channel positions                        : Front: L R
Sampling rate                            : 48.0 kHz
Frame rate                               : 31.250 FPS (1536 SPF)
Bit depth                                : 16 bits
Compression mode                         : Lossy
Stream size                              : 288 MiB (1%)
Title                                    : Профессиональный многоголосый (HDRezka Studio)
Service kind                             : Complete Main
Default                                  : Yes
Forced                                   : No

Audio #2
ID                                       : 3
Format                                   : TrueHD
Format profile                           : TrueHD+Atmos / TrueHD
Codec ID                                 : A_TRUEHD
Duration                                 : 1 h 44 min
Bit rate mode                            : Variable
Bit rate                                 : 4 970 kb/s
Maximum bit rate                         : 6 402 kb/s
Channel(s)                               : Object Based / 8 channels
Channel positions                        : Object Based / Front: L C R, Side: L R, Back: L R, LFE
Sampling rate                            :  / 48.0 kHz
Frame rate                               : 1 200.000 FPS (40 SPF)
Compression mode                         : Lossless
Stream size                              : 3.64 GiB (12%)
Language                                 : English
Default                                  : No
Forced                                   : No

Audio #3
ID                                       : 4
Format                                   : AC-3
Format/Info                              : Audio Coding 3
Codec ID                                 : A_AC3
Duration                                 : 1 h 44 min
Bit rate mode                            : Constant
Bit rate                                 : 448 kb/s
Channel(s)                               : 6 channels
Channel positions                        : Front: L C R, Side: L R, LFE
Sampling rate                            : 48.0 kHz
Frame rate                               : 31.250 FPS (1536 SPF)
Bit depth                                : 16 bits
Compression mode                         : Lossy
Stream size                              : 336 MiB (1%)
Language                                 : English
Service kind                             : Complete Main
Default                                  : No
Forced                                   : No

Text #1
ID                                       : 5
Format                                   : UTF-8
Codec ID                                 : S_TEXT/UTF8
Codec ID/Info                            : UTF-8 Plain Text
Duration                                 : 1 h 37 min
Bit rate                                 : 94 b/s
Count of elements                        : 1429
Stream size                              : 67.4 KiB (0%)
Title                                    : Full (от San4340)
Language                                 : Russian
Default                                  : Yes
Forced                                   : No

Text #2
ID                                       : 6
Format                                   : UTF-8
Codec ID                                 : S_TEXT/UTF8
Codec ID/Info                            : UTF-8 Plain Text
Duration                                 : 1 h 37 min
Bit rate                                 : 70 b/s
Count of elements                        : 1438
Stream size                              : 50.2 KiB (0%)
Title                                    : Full
Language                                 : English
Default                                  : No
Forced                                   : No

Menu
00:00:00.000                             : en:Chapter 01
00:05:38.254                             : en:Chapter 02
00:12:23.492                             : en:Chapter 03
00:16:54.471                             : en:Chapter 04
00:25:36.117                             : en:Chapter 05
00:32:20.855                             : en:Chapter 06
00:41:37.953                             : en:Chapter 07
00:44:38.217                             : en:Chapter 08
00:52:38.989                             : en:Chapter 09
00:59:30.650                             : en:Chapter 10
01:04:50.845                             : en:Chapter 11
01:11:53.517                             : en:Chapter 12
01:20:23.318                             : en:Chapter 13
01:25:23.159                             : en:Chapter 14
01:30:45.648                             : en:Chapter 15
01:37:26.340                             : en:Chapter 16



Скриншоты:
[+] Всего файлов в раздаче - 1:
Passazhyr.2018.BDRemux.1080p.MediaClub.mkv29.76 GB

Текущая раздача:
ДатаКомментарии    РазмерПиры
2018-04-14 U Пассажир / The Commuter (2018) BDRemux 1080p от MediaClub | HDrezka Studio 29.76 GB ↑ 57 ↓ 71

Показать еще раздачи по запросу пассажир:
2018-04-18 U Пассажир / The Commuter (2018) BDRip 720p от Scarabey | iTunes, L 4.59 GB ↑ 321 ↓ 20
2018-04-18 U Пассажир / The Commuter (2018) HDRip от Scarabey | iTunes 1.40 GB ↑ 380 ↓ 22
2018-04-18 U Пассажир / The Commuter (2018) HDRip от Scarabey | iTunes 746.55 MB ↑ 205 ↓ 10
2018-04-18 U Пассажир / The Commuter (2018) BDRip от ExKinoRay | iTunes 2.14 GB ↑ 91 ↓ 42
2018-04-17 U Пассажир / The Commuter (2018) BDRip от ExKinoRay | iTunes 1.41 GB ↑ 144 ↓ 50
2018-04-17 U Пассажир / The Commuter (2018) HDRip от MegaPeer | iTunes 753.00 MB ↑ 78 ↓ 55
2018-04-17 U Пассажир / The Commuter (2018) BDRemux 1080p от ExKinoRay | D, L | iTunes 30.05 GB ↑ 53 ↓ 115

Отзывы
Зарегистрируйтесь чтобы добавить комментарий.
Обратная связь
Copyleft ©