↑↓Torrent.by
Поиск
Логин: Регистрация
Пароль: Восстановить пароль
Загрузка...

Таинственная стена / Wall of Secrets (2003) WEB-DL 1080p | P2

Скачать tainstvennaya-stena-wall-of-secrets-2003-web-dl-1080p-p2.torrent
U Магнитная ссылка Размер: 9.50 GB Раздают: 55 Качают: 21 Добавлен: 2018-04-14 07:48:11
Таинственная стена / Wall of Secrets (2003) WEB-DL 1080p | P2

Название: Стена секретов / Таинственная стена
Оригинальное название: Wall of Secrets
Год выпуска: 2003
Выпущено: Канада, США, Hive Film Production Inc., JB Media
Жанр:  Триллер, детектив
Режиссер: Франсуа Жингра
В ролях: Николь Эггерт, Дин МакДермотт, Брюс Грэй, Стивен МакХэтти, Конрад Пла, Мэттью Бойлэн, Сара Аллен, Мэри Мортер, Стив Адамс, Сьюзэн Гловер

О фильме:
Марк, работая в одной из фирм в Сиэтле, неожиданно получает очень выгодное предложение - переехать в Чикаго, где он получает роскошные апартаменты с прекрасным видом в жилом районе города. Марк переезжает со своей женой Пэйдж на новое место жительства. После вселения в эту квартиру Пэйдж стала ощущать, что за ней кто-то подсматривает. Одна пожилая женщина посоветовала ей не жить здесь, сказав, что квартира проклята и в ней кто-то умер. На следующий день эту женщину нашли мертвой. Увидев однажды незнакомца в квартире, Пэйдж вызывает полицию, но та не торопится ей помочь. Неожиданно Пэйдж обнаруживает, что в стене что-то спрятано...

Продолжительность: 01:31:46
Перевод: Профессиональный двухголосый
Субтитры: Английские

Файл
Качество: WEB-DL 1080p
Видео: MPEG-4 AVC, 14,1 Мбит/сек, 1920x1080, 23,976 кадра/сек
Аудио #1: AC3, 2 ch, 192 Кбит/сек | Русский, профессиональный (двухголосый закадровый) ТПО Ред Медиа
Аудио #2: EAC3, 2 ch, 224 Кбит/сек | Английский, оригинал



[+] Инфо-файл
Общее
Уникальный идентификатор                 : 204107822346683249320719604559913412229 (0x998DBC97FC4A0031B91CBEF53E03E685)
Полное имя                               : Стена.секретов.2003.WEB-DL.1080p.mkv
Формат                                   : Matroska
Версия формата                           : Version 2
Размер файла                             : 9,50 Гбайт
Продолжительность                        : 1 ч. 31 м.
Режим общего битрейта                    : Переменный
Общий поток                              : 14,8 Мбит/сек
Дата кодирования                         : UTC 2018-04-13 05:32:41
Программа кодирования                    : mkvmerge v5.8.0 ('No Sleep / Pillow') built on Sep  2 2012 15:37:04
Библиотека кодирования                   : libebml v1.2.3 + libmatroska v1.3.0

Видео
Идентификатор                            : 1
Формат                                   : AVC
Формат/Информация                        : Advanced Video Codec
Профиль формата                          : High@L4
Настройки формата                        : CABAC / 4 Ref Frames
Параметр CABAC формата                   : Да
Параметр RefFrames формата               : 4 кадра
Идентификатор кодека                     : V_MPEG4/ISO/AVC
Продолжительность                        : 1 ч. 31 м.
Вид битрейта                             : Переменный
Битрейт                                  : 14,1 Мбит/сек
Максимальный битрейт                     : 15,0 Мбит/сек
Ширина                                   : 1920 пикселей
Высота                                   : 1080 пикселей
Соотношение сторон                       : 16:9
Режим частоты кадров                     : Постоянный
Частота кадров                           : 23,976 (24000/1001) кадра/сек
Цветовое пространство                    : YUV
Субдискретизация насыщенности            : 4:2:0
Битовая глубина                          : 8 бит
Тип развёртки                            : Прогрессивная
Бит/(Пиксели*Кадры)                      : 0.284
Размер потока                            : 9,05 Гбайт (95%)
Язык                                     : English
Default                                  : Да
Forced                                   : Нет
Цветовой диапазон                        : Limited
Основные цвета                           : BT.709
Характеристики трансфера                 : BT.709
Коэффициенты матрицы                     : BT.709

Аудио #1
Идентификатор                            : 2
Формат                                   : AC-3
Формат/Информация                        : Audio Coding 3
Идентификатор кодека                     : A_AC3
Продолжительность                        : 1 ч. 31 м.
Вид битрейта                             : Постоянный
Битрейт                                  : 192 Кбит/сек
Каналы                                   : 2 канала
Расположение каналов                     : Front: L R
Частота                                  : 48,0 КГц
Частота кадров                           : 31,250 кадров/сек (1536 SPF)
Битовая глубина                          : 16 бит
Метод сжатия                             : С потерями
Размер потока                            : 126 Мбайт (1%)
Заголовок                                : DVO | ТПО Ред Медиа
Язык                                     : Russian
По умолчанию                             : Да
Принудительно                            : Нет

Аудио #2
Идентификатор                            : 3
Формат                                   : E-AC-3
Формат/Информация                        : Enhanced Audio Coding 3
Идентификатор кодека                     : A_EAC3
Продолжительность                        : 1 ч. 31 м.
Вид битрейта                             : Постоянный
Битрейт                                  : 224 Кбит/сек
Каналы                                   : 2 канала
Расположение каналов                     : Front: L R
Частота                                  : 48,0 КГц
Частота кадров                           : 187,500 кадров/сек (256 SPF)
Метод сжатия                             : С потерями
Размер потока                            : 147 Мбайт (2%)
Заголовок                                : Original
Язык                                     : English
По умолчанию                             : Нет
Принудительно                            : Нет

Текст #1
Идентификатор                            : 4
Формат                                   : UTF-8
Идентификатор кодека                     : S_TEXT/UTF8
Идентификатор кодека/Информация          : UTF-8 Plain Text
Язык                                     : English
По умолчанию                             : Нет
Принудительно                            : Нет

Текст #2
Идентификатор                            : 5
Формат                                   : UTF-8
Идентификатор кодека                     : S_TEXT/UTF8
Идентификатор кодека/Информация          : UTF-8 Plain Text
Заголовок                                : SDH
Язык                                     : English
По умолчанию                             : Нет
Принудительно                            : Нет




[+] Дополнительная информация
• Исходник видео WEB-DL Amazon.



Скриншоты:
[+] Всего файлов в раздаче - 1:
Стена.секретов.2003.WEB-DL.1080p.mkv9.50 GB

Текущая раздача:
ДатаКомментарии    РазмерПиры
2018-04-14 U Таинственная стена / Wall of Secrets (2003) WEB-DL 1080p | P2 9.50 GB ↑ 55 ↓ 21

Похожие раздачи по запросу - таинственная:
2016-11-09 U Таинственная страсть [01-12 из 13] (2015) HDTVRip 720p от GeneralFilm 15.75 GB ↑ 78 ↓ 64
2016-07-26 U Таинственная стена (1967) DVBRip 1.08 GB ↑ 302 ↓ 29
2016-05-30 U Медведи Буни: Таинственная зима / Xiong Chumo Zhi Xueling Xiongfeng (2015) WEB-DLRip от MegaPeer | iTunes 1.46 GB ↑ 165 ↓ 82
2016-02-25 U Таинственная находка (1953) DVDRip от New-Team 743.91 MB ↑ 31 ↓ 3
2016-02-25 U Таинственная находка (1953) DVDRip-AVC от New-Team 1.09 GB ↑ 22 ↓ 6
2014-02-15 U Элеонора, таинственная мстительница / Eleonore l'intrepide (2012) SATRip | P 2К1.46 GB ↑ 233 ↓ 174

Отзывы
Зарегистрируйтесь чтобы добавить комментарий.
Обратная связь
Copyleft ©