↑↓Torrent.by
Поиск
Логин: Регистрация
Пароль: Восстановить пароль
Загрузка...

Бэтмен: Готэм в газовом свете / Batman: Gotham by Gaslight (2018) HDRip | Jaskier

Скачать betmen-gotem-v-gazovom-svete-batman-gotham-by-gaslight-2018-hdrip-jaskier.torrent
U Магнитная ссылка Размер: 1.37 GB Раздают: 119 Качают: 21 Добавлен: 2018-04-14 09:48:53
Бэтмен: Готэм в газовом свете / Batman: Gotham by Gaslight (2018) HDRip | Jaskier

Название: Бэтмен: Готэм в газовом свете
Оригинальное название: Batman: Gotham by Gaslight
Год выхода: 2018
Жанр:  мультфильм, фэнтези, боевик, криминал, детектив
Режиссер: Сэм Лью
В ролях: Дженнифер Карпентер, Тара Стронг, Брюс Гринвуд, Скотт Гордон-Паттерсон, Кари Уорер, Грей ДеЛайл, Джон Ди Маджио, Энтони Хэд, Линкольн Мелчер, Юрий Ловенталь

О фильме:
В альтернативной истории в 1889 году Брюс Уэйн возвращается в Готэм из своего путешествия по Европе. Город викторианской эпохи всё так же привлекает преступников. Череда загадочных и зверских убийств заставляет жителей подозревать, что убийца — Бэтмен. Тёмному Рыцарю бросает вызов самый известный маньяк XIX века — Джек-потрошитель.

Страна: США
Продолжительность: 01:17:04
Перевод: Профессиональный многоголосый закадровый (студия Jaskier)

Файл
Кодек: XviD | Avi
Качество: HDRip
Видео: ~ 2156 kbps, 720x400, 23.976 fps
Аудио Rus: AC3, 384 kb/s (6 ch)
Субтитры: отсутствуют
Без рекламы.


[+] MI

Общее
Полное имя                               : D:ЯскъерBatman.Gotham.by.Gaslight.2018.HDRip.Jaskier.avi
Формат                                   : AVI
Формат/Информация                        : Audio Video Interleave
Размер файла                             : 1,37 Гбайт
Продолжительность                        : 1 ч. 17 м.
Общий поток                              : 2549 Кбит/сек
Программа кодирования                    : VirtualDubMod 1.5.10.3 | www.virtualdub-fr.org || (build 2550/release)
Библиотека кодирования                   : VirtualDubMod build 2550/release

Видео
Идентификатор                            : 0
Формат                                   : MPEG-4 Visual
Профиль формата                          : Advanced Simple@L5
Настройки формата                        : BVOP1 / Custom Matrix
Параметр BVOP формата                    : 1
Параметр QPel формата                    : Нет
Параметр GMC формата                     : Без точки перехода
Параметр матрицы формата                 : Выборочная
Идентификатор кодека                     : XVID
Идентификатор кодека/Подсказка           : XviD
Продолжительность                        : 1 ч. 17 м.
Битрейт                                  : 2156 Кбит/сек
Ширина                                   : 720 пикселей
Высота                                   : 400 пикселей
Соотношение сторон                       : 16:9
Частота кадров                           : 23,976 (24000/1001) кадра/сек
Цветовое пространство                    : YUV
Субдискретизация насыщенности            : 4:2:0
Битовая глубина                          : 8 бит
Тип развёртки                            : Прогрессивная
Метод сжатия                             : С потерями
Бит/(Пиксели*Кадры)                      : 0.312
Размер потока                            : 1,16 Гбайт (85%)
Библиотека кодирования                   : XviD 73

Аудио
Идентификатор                            : 1
Формат                                   : AC-3
Формат/Информация                        : Audio Coding 3
Идентификатор кодека                     : 2000
Продолжительность                        : 1 ч. 17 м.
Вид битрейта                             : Постоянный
Битрейт                                  : 384 Кбит/сек
Каналы                                   : 6 каналов
Расположение каналов                     : Front: L C R, Side: L R, LFE
Частота                                  : 48,0 КГц
Частота кадров                           : 31,250 кадров/сек (1536 SPF)
Битовая глубина                          : 16 бит
Метод сжатия                             : С потерями
Размер потока                            : 212 Мбайт (15%)
Выравнивание                             : Разделение по промежуткам
Продолжительность промежутка             : 42  мс. (1,00 видеокадр)
Время предзагрузки промежутка            : 500  мс.




Скриншоты:
[+] Всего файлов в раздаче - 1:
Batman.Gotham.by.Gaslight.2018.HDRip.Jaskier.avi1.37 GB

Текущая раздача:
ДатаКомментарии    РазмерПиры
2018-04-14 U Бэтмен: Готэм в газовом свете / Batman: Gotham by Gaslight (2018) HDRip | Jaskier 1.37 GB ↑ 119 ↓ 21

Показать еще раздачи по запросу бэтмен:
2018-06-20 U Бэтмен: Убийственная шутка / Batman: The Killing Joke (2016) BDRip от ExKinoRay | D 1.46 GB ↑ 67 ↓ 11
2018-04-30 U Бэтмен-ниндзя / Batman Ninja (2018) WEB-DLRip 720p | Flarrow Films 3.22 GB ↑ 91 ↓ 29
2018-04-26 U Бэтмен-ниндзя / Batman Ninja (2018) BDRip 1080p | L1 6.76 GB ↑ 92 ↓ 55
2018-04-26 U Бэтмен-ниндзя / Batman Ninja (2018) WEB-DL 720p | L1 2.84 GB ↑ 139 ↓ 69
2018-02-10 U Бэтмен: Готэм в газовом свете / Batman: Gotham by Gaslight (2018) WEBRip от Portablius | Flarrow Films 697.62 MB ↑ 100 ↓ 24
2018-02-05 U Бэтмен: Готэм в газовом свете / Batman: Gotham by Gaslight (2018) BDRip 720p от potroks | L 2.06 GB ↑ 123 ↓ 47
2018-02-05 U Бэтмен: Готэм в газовом свете / Batman: Gotham by Gaslight (2018) WEBRip 720p | Flarrow Films 2.39 GB ↑ 386 ↓ 146

Отзывы
Зарегистрируйтесь чтобы добавить комментарий.
Обратная связь
Copyleft ©