↑↓Torrent.by
Поиск
Логин: Регистрация
Пароль: Восстановить пароль
Загрузка...

Правда в игре / True to the Game (2017) WEBRip | L2

Скачать pravda-v-igre-true-to-the-game-2017-webrip-l2.torrent
U Магнитная ссылка Размер: 1.44 GB Раздают: 45 Качают: 14 Добавлен: 2018-04-14 09:49:00
Правда в игре / True to the Game (2017) WEBRip | L2

Название: Правда в игре
Оригинальное название: True to the Game
Год выхода: 2017
Жанр: драма
Режиссер: Престон А. Витмор II
В ролях: Эрика Пиплз, Мисан Акуйя, Старлетта Дюпуа, Лоренсо Эдуардо, Нелсан Эллис, Вивика А. Фокс, Дженнифер Фриман, Андра Фуллер и другие
О фильме:
Это фильм о любви, сексе и наркотиках. Обаятельный наркобарон пытается начать новую жизнь после того, как влюбляется в молодую женщину из Филадельфии.

Страна: США, At Eaze Music Group, Imani Motion Pictures
Продолжительность: 01:48:56
Перевод: Любительский (двухголосый закадровый) | HiWay Grope

Файл
Кодек: XviD
Качество: WEBRip
Видео: 720x400, 23.976 fps, ~1498 kbps, 0.22 bit/pixel
Звук:
Аудио rus: AC3, 48 kHz, 6 ch, 384 Kbps
Субтитры: отсутствуют

Реклама: присутствует

Семпл

ВНИМАНИЕ! Присутствует ненормативная лексика

Релиз от: HiWay Grope


[+] MediaInfo:

General
Complete name                            : E:True.To.the.Game.2017.WEBRip.HiWayGropeTrue.To.the.Game.2017.WEBRip.HiWayGrope.avi
Format                                   : AVI
Format/Info                              : Audio Video Interleave
File size                                : 1.44 GiB
Duration                                 : 1h 48mn
Overall bit rate                         : 1 892 Kbps
Writing application                      : VirtualDubMod 1.5.10.3 (build 2550/release)
Writing library                          : VirtualDubMod build 2550/release

Video
ID                                       : 0
Format                                   : MPEG-4 Visual
Format profile                           : Advanced Simple@L5
Format settings, BVOP                    : 1
Format settings, QPel                    : No
Format settings, GMC                     : No warppoints
Format settings, Matrix                  : Default (MPEG)
Codec ID                                 : XVID
Codec ID/Hint                            : XviD
Duration                                 : 1h 48mn
Bit rate                                 : 1 498 Kbps
Width                                    : 720 pixels
Height                                   : 400 pixels
Display aspect ratio                     : 16:9
Frame rate                               : 23.976 (23976/1000) fps
Color space                              : YUV
Chroma subsampling                       : 4:2:0
Bit depth                                : 8 bits
Scan type                                : Progressive
Compression mode                         : Lossy
Bits/(Pixel*Frame)                       : 0.217
Stream size                              : 1.14 GiB (79%)
Writing library                          : XviD 73

Audio
ID                                       : 1
Format                                   : AC-3
Format/Info                              : Audio Coding 3
Mode extension                           : CM (complete main)
Format settings, Endianness              : Big
Codec ID                                 : 2000
Duration                                 : 1h 48mn
Bit rate mode                            : Constant
Bit rate                                 : 384 Kbps
Channel(s)                               : 6 channels
Channel positions                        : Front: L C R, Side: L R, LFE
Sampling rate                            : 48.0 KHz
Frame rate                               : 31.250 fps (1536 spf)
Compression mode                         : Lossy
Stream size                              : 299 MiB (20%)
Alignment                                : Split accross interleaves
Interleave, duration                     : 42 ms (1.00 video frame)
Interleave, preload duration             : 500 ms




Скриншоты:
[+] Всего файлов в раздаче - 1:
True.To.the.Game.2017.WEBRip.HiWayGrope.avi1.44 GB

Текущая раздача:
ДатаКомментарии    РазмерПиры
2018-04-14 U Правда в игре / True to the Game (2017) WEBRip | L2 1.44 GB ↑ 45 ↓ 14

Показать еще раздачи по запросу правда:
2018-03-21 U Майкл Бут - Почти идеальные люди. Вся правда о жизни в «Скандинавском раю» (2017) FB2 1.50 MB ↑ 128 ↓ 10
2017-07-20 U Вся правда о тамплиерах / La vérité sur les templiers (2013) HDTVRip от Koenig | P2 696.92 MB ↑ 146 ↓ 27
2017-07-13 U Прокопенко Игорь - Правда и мифы о спецназе (2017) FB2 1К3.48 MB ↑ 314 ↓ 17
2017-06-26 U Рыжий: вся правда / Red Dog: True Blue (2016) HDRip-AVC от ImperiaFilm | L 742.04 MB ↑ 109 ↓ 18
2017-05-17 U Козинкин Олег - Хотят ли русские войны? Вся правда о Великой Отечественной, или Почему врут историки (2014) FB2 1.63 MB ↑ 125 ↓ 5
2017-05-14 U Чураков Димитрий - СССР при Брежневе. Правда великой эпохи (2016) FB2 3.95 MB ↑ 360 ↓ 2
2017-01-16 U Только правда / The Whole Truth (2016) BDRip от MegaPeer | L 1.46 GB ↑ 129 ↓ 69

Отзывы
Зарегистрируйтесь чтобы добавить комментарий.
Обратная связь
Copyleft ©