↑↓Torrent.by
Поиск
Логин: Регистрация
Пароль: Восстановить пароль
Загрузка...

Тэд-путешественник и тайна царя Мидаса / Tadeo Jones 2: El secreto del Rey Midas (2017) BDRip 1080p | Лицензия

Скачать ted-puteshestvennik-i-tayna-carya-midasa-tadeo-jones-2-el-secreto-del-rey-midas-2017-bdrip-1080p-licenziya.torrent
U Магнитная ссылка Размер: 8.72 GB Раздают: 109 Качают: 29 Добавлен: 2018-04-14 13:20:17
Тэд-путешественник и тайна царя Мидаса / Tadeo Jones 2: El secreto del Rey Midas (2017) BDRip 1080p | Лицензия

Название: Тэд-путешественник и тайна царя Мидаса
Оригинальное название: Tadeo Jones 2: El secreto del Rey Midas
Год выхода: 2017
Жанр: Фэнтези, комедия, приключения, семейный
Страна: Испания
Перевод: Дублированный | Лицензия
Продолжительность: 01:24:57
Режиссеры: Давид Алонсо, Энрике Гато
В ролях: Оскар Барберан, Мишель Хеннер, Адриана Угарте, Луис Посада, Мигель Анхель Хеннер, Хосе Корбачо, Росер Баталья, Рафаэль Калво, Давид Брау, Франческ Бельда и др.
Роли дублировали: Пётр Иващенко, Татьяна Шитова, Анна Киселёва, Илья Хвостиков, Михаил Белякович, Александр Новиков, Антон Колесников, Олег Новиков, Григорий Маликов, Антон Савенков и др.

О фильме: Тэд, не самый удачливый и ловкий исследователь и путешественник, и его странноватые друзья, в числе которых настоящая мумия и смышленый пес Джефф, отправляются на розыски злобного богача Джека Рэкхема, похитившего Сару. Любимая Тэда обнаружила, где спрятаны сокровища легендарного царя Мидаса, и злодей надеется их заполучить. Но Тэд и его команда должны разрушить планы беспринципного богача и освободить Сару!

Файл
Качество: BDRip 1080p
Видео: MPEG-4 AVC, 1920x816, 10500 kbps, 23,976 fps
Звук#1: русский, AC3, 6 ch, 48 kHz, 640 kbps
Звук#2: английский, TrueHD, 6 ch, 48 kHz, 3472 kbps
Субтитры: русские, английские
[+] MI
Общее
Уникальный идентификатор                 : 223918100170596975251103120829746979760 (0xA8750EB322989DDF8FB18893106F23B0)
Полное имя                               : G:DelugeTadeoJones2BDRip1080p.mkv
Формат                                   : Matroska
Версия формата                           : Version 4 / Version 2
Размер файла                             : 8,72 Гбайт
Продолжительность                        : 1 ч. 24 м.
Режим общего битрейта                    : Переменный
Общий поток                              : 14,7 Мбит/сек
Дата кодирования                         : UTC 2018-04-12 23:49:49
Программа кодирования                    : mkvmerge v9.5.0 ('Quiet Fire') 64bit
Библиотека кодирования                   : libebml v1.3.4 + libmatroska v1.4.5

Видео
Идентификатор                            : 1
Формат                                   : AVC
Формат/Информация                        : Advanced Video Codec
Профиль формата                          : High@L4.1
Настройки формата                        : CABAC / 5 Ref Frames
Параметр CABAC формата                   : Да
Параметр RefFrames формата               : 5 кадров
Идентификатор кодека                     : V_MPEG4/ISO/AVC
Продолжительность                        : 1 ч. 24 м.
Битрейт                                  : 10,5 Мбит/сек
Ширина                                   : 1920 пикселей
Высота                                   : 816 пикселей
Соотношение сторон                       : 2,35:1
Режим частоты кадров                     : Постоянный
Частота кадров                           : 23,976 (24000/1001) кадра/сек
Цветовое пространство                    : YUV
Субдискретизация насыщенности            : 4:2:0
Битовая глубина                          : 8 бит
Тип развёртки                            : Прогрессивная
Бит/(Пиксели*Кадры)                      : 0.280
Размер потока                            : 6,23 Гбайт (72%)
Библиотека кодирования                   : x264 core 142 r2479 dd79a61
Настройки программы                      : cabac=1 / ref=5 / deblock=1:-3:-3 / analyse=0x3:0x133 / me=umh / subme=11 / psy=1 / psy_rd=1.00:0.00 / mixed_ref=1 / me_range=32 / chroma_me=1 / trellis=2 / 8x8dct=1 / cqm=0 / deadzone=21,11 / fast_pskip=1 / chroma_qp_offset=-2 / threads=12 / lookahead_threads=3 / sliced_threads=0 / nr=0 / decimate=1 / interlaced=0 / bluray_compat=0 / constrained_intra=0 / bframes=10 / b_pyramid=2 / b_adapt=2 / b_bias=0 / direct=3 / weightb=1 / open_gop=0 / weightp=0 / keyint=240 / keyint_min=24 / scenecut=40 / intra_refresh=0 / rc_lookahead=40 / rc=2pass / mbtree=1 / bitrate=10500 / ratetol=1.0 / qcomp=0.60 / qpmin=0 / qpmax=69 / qpstep=4 / cplxblur=20.0 / qblur=0.5 / vbv_maxrate=62500 / vbv_bufsize=78125 / nal_hrd=none / filler=0 / ip_ratio=1.40 / aq=1:1.00
Default                                  : Да
Forced                                   : Нет
Цветовой диапазон                        : Limited
Основные цвета                           : BT.709
Характеристики трансфера                 : BT.709
Коэффициенты матрицы                     : BT.709

Аудио #1
Идентификатор                            : 2
Формат                                   : AC-3
Формат/Информация                        : Audio Coding 3
Идентификатор кодека                     : A_AC3
Продолжительность                        : 1 ч. 24 м.
Вид битрейта                             : Постоянный
Битрейт                                  : 640 Кбит/сек
Каналы                                   : 6 каналов
Расположение каналов                     : Front: L C R, Side: L R, LFE
Частота                                  : 48,0 КГц
Частота кадров                           : 31,250 кадров/сек (1536 SPF)
Битовая глубина                          : 16 бит
Метод сжатия                             : С потерями
Размер потока                            : 389 Мбайт (4%)
Язык                                     : Russian
Default                                  : Да
Forced                                   : Нет

Аудио #2
Идентификатор                            : 3
Формат                                   : TrueHD
Идентификатор кодека                     : A_TRUEHD
Продолжительность                        : 1 ч. 24 м.
Вид битрейта                             : Переменный
Битрейт                                  : 3472 Кбит/сек
Максимальный битрейт                     : 5598 Кбит/сек
Каналы                                   : 6 каналов
Расположение каналов                     : Front: L C R, Side: L R, LFE
Частота                                  : 48,0 КГц
Частота кадров                           : 1200,000 кадров/сек (40 SPF)
Метод сжатия                             : Без потерь
Размер потока                            : 2,06 Гбайт (24%)
Язык                                     : English
Default                                  : Нет
Forced                                   : Нет

Текст #1
Идентификатор                            : 4
Формат                                   : UTF-8
Идентификатор кодека                     : S_TEXT/UTF8
Идентификатор кодека/Информация          : UTF-8 Plain Text
Продолжительность                        : 1 ч. 24 м.
Битрейт                                  : 75 бит/сек
ElementCount                             : 1003
Размер потока                            : 46,7 Кбайт (0%)
Язык                                     : Russian
Default                                  : Да
Forced                                   : Нет

Текст #2
Идентификатор                            : 5
Формат                                   : UTF-8
Идентификатор кодека                     : S_TEXT/UTF8
Идентификатор кодека/Информация          : UTF-8 Plain Text
Продолжительность                        : 1 ч. 16 м.
Битрейт                                  : 51 бит/сек
ElementCount                             : 982
Размер потока                            : 28,8 Кбайт (0%)
Язык                                     : English
Default                                  : Нет
Forced                                   : Нет

Текст #3
Идентификатор                            : 6
Формат                                   : UTF-8
Идентификатор кодека                     : S_TEXT/UTF8
Идентификатор кодека/Информация          : UTF-8 Plain Text
Продолжительность                        : 1 ч. 17 м.
Битрейт                                  : 60 бит/сек
ElementCount                             : 1236
Размер потока                            : 34,5 Кбайт (0%)
Язык                                     : English
Default                                  : Нет
Forced                                   : Нет




Скриншоты:
[+] Всего файлов в раздаче - 1:
TadeoJones2BDRip1080p.mkv8.72 GB

Текущая раздача:
ДатаКомментарии    РазмерПиры
2018-04-14 U Тэд-путешественник и тайна царя Мидаса / Tadeo Jones 2: El secreto del Rey Midas (2017) BDRip 1080p | Лицензия 8.72 GB ↑ 109 ↓ 29

Показать еще раздачи по запросу путешественник:
2018-04-14 U Тэд-путешественник и тайна царя Мидаса / Tadeo Jones 2: El secreto del Rey Midas (2017) BDRip 720p | Лицензия 4.03 GB ↑ 97 ↓ 22
2018-04-13 U Тэд-путешественник и тайна царя Мидаса / Tadeo Jones 2: El secreto del Rey Midas (2017) BDRip от MegaPeer | Лицензия 1.46 GB ↑ 61 ↓ 33
2018-03-07 U Страшные сказки 14: Путешественник во времени / Grim Tales 14. The Time Traveler (2018) PC | Лицензия 925.51 MB ↑ 35 ↓ 1
2018-03-05 U Страшные сказки 14: Путешественник во времени / Grim Tales 14. The Time Traveler CE (2018) PC 924.91 MB ↑ 207 ↓ 25
2018-01-16 U Тэд-путешественник и тайна царя Мидаса / Tadeo Jones 2: El secreto del Rey Midas (2017) BDRip 1080p от Ash61 | 3D-Video | halfOU | iTunes 5.21 GB ↑ 62 ↓ 30
2018-01-09 U Тэд-путешественник и тайна царя Мидаса / Tadeo Jones 2: El secreto del Rey Midas (2017) BDRip от ExKinoRay | iTunes 1.42 GB ↑ 472 ↓ 25
2018-01-06 U Тэд-путешественник и тайна царя Мидаса / Tadeo Jones 2: El secreto del Rey Midas (2017) HDRip-AVC от Kaztorrents | iTunes 1.46 GB ↑ 187 ↓ 49

Отзывы
Зарегистрируйтесь чтобы добавить комментарий.
Обратная связь
Copyleft ©