↑↓Torrent.by
Поиск
Логин: Регистрация
Пароль: Восстановить пароль
Загрузка...

Братья Гримм / The Brothers Grimm (2005) HDRip-AVC от ExKinoRay | D

Скачать bratya-grimm-the-brothers-2005-hdrip-avc-ot-exkinoray-d.torrent
U Магнитная ссылка Размер: 744.85 MB Раздают: 133 Качают: 16 Добавлен: 2018-04-14 15:47:05
Братья Гримм / The Brothers Grimm (2005) HDRip-AVC от ExKinoRay | D

Название: Братья Гримм
Оригинальное название: The Brothers Grimm
Год выхода: 2005
Жанр:  Фэнтези, триллер, комедия, приключения
Режиссер: Терри Гиллиам
В ролях: Мэтт Дэймон, Хит Леджер, Моника Беллуччи, Анна Руст, Джереми Робсон, Петр Ратимец, Барбора Лукесова, Радим Калвода, Мартин Хофманн, Джозеф Пепа Нос, Гарри Гиллиам, Мирослав Таборски, Роджер Эштон-Гриффитс, Марика Сара Прочазкова, Маккензи Крук, Ричард Райдингс, Алена Якобова, Рудольф Пеллар, Дэна Доналова, Петра Доналова, Ханус Бор, Ота Филипп

О фильме :
Давным-давно, жили-были два брата-авантюриста Уилл и Якоб Гримм, которые впоследствии стали знаменитыми сказочниками. Но до того они путешествовали по деревушкам, занимаясь собиранием фольклора и «прогоняя нечисть» за деньги… Приезжали в деревню, убеждали жителей, что на их мельнице поселилась ведьма, а потом — за вознаграждение — успешно «изгоняли» ее. В следующем селе это был тролль под мостом и так далее. Но однажды слава об «экзорцистах» дошла до наполеоновских властей, которые приказали братьям расследовать серию загадочных исчезновений юных девушек в лесу на границе Франции и Германии. Тут-то наши герои и сталкиваются нос к носу с настоящей нечистью — злой колдуньей… Уиллу и Якобу придется проявить все свои незаурядные способности, ведь в случае неудачи горе-детективов ждет гильотина…

Страна: США, Великобритания, Чехия
Студия: Dimension Films, Metro Goldwyn Mayer
Продолжительность: 01:58:28
Перевод: Профессиональный (полное дублирование)

Файл
Формат: MKV
Качество: HDRip-AVC
Видео: MPEG-4 AVC, 752x408, ~ 802 Кбит/с
Аудио:  AAC-HE, 2 ch, ~ 76 Кбит/с
Субтитры: Русские, английские

Релиз:


[+] MI
Общее
Уникальный идентификатор : 209894941649267762051867970986231779702 (0x9DE84B9ABB674EEDA22B710EB9DCD176)
Полное имя : D:MOVIESBratja.Grimm.2005.ExKinoRay.mkv
Формат : Matroska
Версия формата : Version 4 / Version 2
Размер файла : 745 Мбайт
Продолжительность : 1 ч. 58 м.
Общий поток : 879 Кбит/сек
Дата кодирования : UTC 2018-04-14 05:18:31
Программа кодирования : mkvmerge v15.0.0 ('Duel with the Devil') 64-bit
Библиотека кодирования : libebml v1.3.5 + libmatroska v1.4.5

Видео
Идентификатор : 1
Формат : AVC
Формат/Информация : Advanced Video Codec
Профиль формата : High@L4.1
Параметр CABAC формата : Да
Параметр RefFrames формата : 10 кадров
Идентификатор кодека : V_MPEG4/ISO/AVC
Продолжительность : 1 ч. 58 м.
Битрейт : 802 Кбит/сек
Ширина : 752 пикселя
Высота : 408 пикселей
Соотношение сторон : 1,85:1
Режим частоты кадров : Постоянный
Частота кадров : 23,976 (24000/1001) кадра/сек
Цветовое пространство : YUV
Субдискретизация насыщенности : 4:2:0
Битовая глубина : 8 бит
Тип развёртки : Прогрессивная
Бит/(Пиксели*Кадры) : 0.109
Размер потока : 679 Мбайт (91%)
Библиотека кодирования : x264 core 155 r2901 7d0ff22
Настройки программы : cabac=1 / ref=10 / deblock=1:-3:-3 / analyse=0x3:0x133 / me=umh / subme=11 / psy=1 / psy_rd=1.00:0.11 / mixed_ref=1 / me_range=32 / chroma_me=1 / trellis=2 / 8x8dct=1 / cqm=0 / deadzone=21,11 / fast_pskip=0 / chroma_qp_offset=-3 / threads=6 / lookahead_threads=1 / sliced_threads=0 / nr=0 / decimate=0 / interlaced=0 / bluray_compat=0 / constrained_intra=0 / bframes=10 / b_pyramid=2 / b_adapt=2 / b_bias=0 / direct=3 / weightb=1 / open_gop=0 / weightp=2 / keyint=240 / keyint_min=23 / scenecut=40 / intra_refresh=0 / rc_lookahead=40 / rc=2pass / mbtree=1 / bitrate=802 / ratetol=1.0 / qcomp=0.60 / qpmin=0 / qpmax=69 / qpstep=4 / cplxblur=20.0 / qblur=0.5 / vbv_maxrate=50000 / vbv_bufsize=62500 / nal_hrd=none / filler=0 / ip_ratio=1.40 / aq=3:1.00
Default : Да
Forced : Нет

Аудио
Идентификатор : 2
Формат : AAC
Формат/Информация : Advanced Audio Codec
Профиль формата : HE-AAC / LC
Идентификатор кодека : A_AAC
Продолжительность : 1 ч. 58 м.
Битрейт : 76,0 Кбит/сек
Каналы : 2 канала
Расположение каналов : Front: L R
Частота : 48,0 КГц / 24,0 КГц
Частота кадров : 23,438 кадра/сек (1024 SPF)
Метод сжатия : С потерями
Задержка видео : 31 мс.
Размер потока : 64,4 Мбайт (9%)
Default : Да
Forced : Нет

Текст #1
Идентификатор : 3
Формат : UTF-8
Идентификатор кодека : S_TEXT/UTF8
Идентификатор кодека/Информация : UTF-8 Plain Text
Продолжительность : 1 ч. 50 м.
Битрейт : 76 бит/сек
ElementCount : 1191
Размер потока : 61,5 Кбайт (0%)
Заголовок : rus full
Язык : Russian
Default : Нет
Forced : Нет

Текст #2
Идентификатор : 4
Формат : UTF-8
Идентификатор кодека : S_TEXT/UTF8
Идентификатор кодека/Информация : UTF-8 Plain Text
Продолжительность : 1 ч. 49 м.
Битрейт : 44 бит/сек
ElementCount : 1236
Размер потока : 35,8 Кбайт (0%)
Заголовок : eng full
Язык : English
Default : Нет
Forced : Нет

Меню
00:00:00.000 : :Chapter 01
00:05:00.000 : :Chapter 02
00:10:00.000 : :Chapter 03
00:15:00.000 : :Chapter 04
00:20:00.000 : :Chapter 05
00:25:00.000 : :Chapter 06
00:30:00.000 : :Chapter 07
00:35:00.000 : :Chapter 08
00:40:00.000 : :Chapter 09
00:45:00.000 : :Chapter 10
00:50:00.000 : :Chapter 11
00:55:00.000 : :Chapter 12
01:00:00.000 : :Chapter 13
01:05:00.000 : :Chapter 14
01:10:00.000 : :Chapter 15
01:15:00.000 : :Chapter 16
01:20:00.000 : :Chapter 17
01:25:00.000 : :Chapter 18
01:30:00.000 : :Chapter 19
01:35:00.000 : :Chapter 20
01:40:00.000 : :Chapter 21
01:45:00.000 : :Chapter 22
01:50:00.000 : :Chapter 23
01:55:00.000 : :Chapter 24



Скриншоты:
[+] Всего файлов в раздаче - 1:
Bratja.Grimm.2005.ExKinoRay.mkv744.85 MB

Текущая раздача:
ДатаКомментарии    РазмерПиры
2018-04-14 U Братья Гримм / The Brothers Grimm (2005) HDRip-AVC от ExKinoRay | D 744.85 MB ↑ 133 ↓ 16

Показать еще раздачи по запросу братья:
2018-01-23 U Братья Пилоты: Трилогия / Pilot Brothers: Trilogy (1997-2004) PC | Лицензия 426.49 MB ↑ 105 ↓ 15
2018-01-05 U Святочные истории: Братья Клаус Коллекционное издание / Yuletide Legends: The Brothers Claus Collector's Edition (2016) PC 1.25 GB ↑ 382 ↓ 21
2016-07-27 U Братья ветра / Brothers of the Wind (2015) HDRip | L 1.46 GB ↑ 368 ↓ 60
2016-07-24 U Братья из Гримсби / Grimsby (2016) BDRip-AVC от New-Team | Лицензия 1.46 GB ↑ 60 ↓ 21
2016-07-24 U Братья из Гримсби / Grimsby (2016) BDRip-AVC от New-Team | Лицензия 2.18 GB ↑ 73 ↓ 17
2016-07-06 U Братья / Brothers (2015) HDRip | Р 1.46 GB ↑ 740 ↓ 310
2016-06-05 U Братья из Гримсби / Grimsby (2016) HDRip от Scarabey | iTunes 1.44 GB ↑ 619 ↓ 316

Отзывы
Зарегистрируйтесь чтобы добавить комментарий.
Обратная связь
Copyleft ©