↑↓Torrent.by
Поиск
Логин: Регистрация
Пароль: Восстановить пароль
Загрузка...

Титан / The Titan (2018) WEBRip от Portablius | HDRezka Studio

Скачать titan-the-2018-webrip-ot-portablius-hdrezka-studio.torrent
U Магнитная ссылка Размер: 698.58 MB Раздают: 76 Качают: 40 Добавлен: 2018-04-14 17:56:30
Титан / The Titan (2018) WEBRip от Portablius | HDRezka Studio

Название: Титан
Оригинальное название: The Titan
Год выхода: 2018
Жанр: фантастика
Режиссер: Леннарт Рафф
В ролях: Сэм Уортингтон, Тейлор Шиллинг, Том Уилкинсон, Агнесс Дейн, Натали Эммануэль, Кори Джонсон, Александр Йованович, Аарон Хеффернан, Натали Поса, Стивен Кри

О фильме: Американский военный Рик принимает участие в грандиозной космической программе. Лучшие умы планеты пытаются создать сверхлюдей, которые после гибели Земли обеспечат продолжение существования человечества на планете Титан. Однако эксперимент по скрещиванию генов Homo sapiens с инопланетным существом приводит к совершенно непредсказуемым последствиям.

Страна: Великобритания, США, Испания
Продолжительность: 01:37:28
Перевод: Любительский (многоголосый, закадровый) [HDRezka Studio]
Субтитры: Нет

Файл
Кодек: XviD
Качество: WEBRip
Видео: 720x304 (2.37:1), 24.000 fps, XviD build 73 ~875 kbps avg, 0.17 bit/pixel
Звук: 48 kHz, MPEG Layer 3, 2 ch, ~128.00 kbps avg


[+] MediaInfo
General
Complete name               : The.Titan.2018.WEBRip.ot.Portablius5.avi
Format                      : AVI
Format/Info                 : Audio Video Interleave
File size                   : 699 MiB
Duration                    : 1 h 36 min
Overall bit rate            : 1 013 kb/s
Writing application         : VirtualDubMod 1.5.10.3 | www.virtualdub-fr.org || (build 2550/release)
Writing library             : VirtualDub build 35491/release

Video
ID                          : 0
Format                      : MPEG-4 Visual
Format profile              : Advanced Simple@L5
Format settings, BVOP       : 1
Format settings, QPel       : No
Format settings, GMC        : No warppoints
Format settings, Matrix     : Custom
Codec ID                    : XVID
Codec ID/Hint               : XviD
Duration                    : 1 h 36 min
Bit rate                    : 876 kb/s
Width                       : 720 pixels
Height                      : 304 pixels
Display aspect ratio        : 2.35:1
Frame rate                  : 24.000 FPS
Color space                 : YUV
Chroma subsampling          : 4:2:0
Bit depth                   : 8 bits
Scan type                   : Progressive
Compression mode            : Lossy
Bits/(Pixel*Frame)          : 0.167
Stream size                 : 604 MiB (86%)
Writing library             : XviD 73

Audio
ID                          : 1
Format                      : MPEG Audio
Format version              : Version 1
Format profile              : Layer 3
Codec ID                    : 55
Codec ID/Hint               : MP3
Duration                    : 1 h 36 min
Bit rate mode               : Constant
Bit rate                    : 128 kb/s
Channel(s)                  : 2 channels
Sampling rate               : 48.0 kHz
Compression mode            : Lossy
Stream size                 : 88.3 MiB (13%)
Alignment                   : Aligned on interleaves
Interleave, duration        : 42  ms (1.00 video frame)
Interleave, preload duratio : 504  ms
Writing library             : LAME3.99r
Encoding settings           : -m s -V 4 -q 2 -lowpass 17 -b 128




Скриншоты:
[+] Всего файлов в раздаче - 1:
The.Titan.2018.WEBRip.ot.Portablius5.avi698.58 MB

Текущая раздача:
ДатаКомментарии    РазмерПиры
2018-04-14 U Титан / The Titan (2018) WEBRip от Portablius | HDRezka Studio 698.58 MB ↑ 76 ↓ 40

Показать еще раздачи по запросу титан:
2018-06-21 U Титан / The Titan (2018) BDRip 720p | Jaskier 1К4.94 GB ↑ 89 ↓ 85
2018-06-21 U Титан / The Titan (2018) HDRip | Jaskier 1.45 GB ↑ 57 ↓ 41
2018-05-10 U Титан / The Titan (2018) BDRip 720p от HELLYWOOD | iTunes 3.51 GB ↑ 96 ↓ 47
2018-05-07 U Титан / The Titan (2018) HDRip от MegaPeer | iTunes 745.61 MB ↑ 59 ↓ 28
2018-05-06 U Титан / The Titan (2018) HDRip от MegaPeer | iTunes 1.41 GB ↑ 307 ↓ 62
2018-05-06 U Титан / The Titan (2018) BDRip от ExKinoRay | iTunes 1.42 GB ↑ 246 ↓ 62
2018-05-05 U Титан / The Titan (2018) BDRip-AVC от HELLYWOOD | iTunes 1.41 GB ↑ 111 ↓ 72

Отзывы
Зарегистрируйтесь чтобы добавить комментарий.
Обратная связь
Copyleft ©