↑↓Torrent.by
Поиск
Логин: Регистрация
Пароль: Восстановить пароль
Загрузка...

Затерянные в космосе / Lost in Space [01x01-03 из 10] (2018) WEBRip 720p | OMSKBIRD

Скачать zateryannye-v-kosmose-lost-in-space-01x01-03-iz-10-2018-webrip-720p-omskbird.torrent
U Магнитная ссылка Размер: 3.81 GB Раздают: 135 Качают: 35 Добавлен: 2018-04-15 05:11:08
Затерянные в космосе / Lost in Space [01x01-03 из 10] (2018) WEBRip 720p | OMSKBIRD

Название: Затерянные в космосе
Оригинальное название: Lost in Space
Год выхода: 2018
Жанр: фантастика
Режиссер: Тим Соутэм, Дебора Чоу, Стивен Серджик
В ролях: Молли Паркер, Тоби Стивенс, Паркер Поузи, Игнасио Серричио, Раза Джеффри, Адам Рейд, Кики Сукизейн, Сибо Мламбо и др.

О фильме:
2046 год. Космический корабль теряется в космосе и терпит крушение на планете на расстоянии нескольких световых лет от планируемого места назначения. Его обитатели, семья Робинсонов, вынуждены приспособиться и выжить в новых условиях.

Страна: США
Продолжительность: ~ 60 мин. серия
Перевод: Любительский (многоголосый закадровый) | OMSKBIRD

Файл
Кодек: MPEG-4 AVC
Качество: WEBRip 720p
Видео: AVC, 1280x720 (16:9), 23.976 fps, ~ 3000 kbps
Звук: Аудио rus: AC-3, 48 KHz, 2 ch, 192 kbps | OMSKBIRD records

Семпл

Присутствует реклама!


[+] Mediainfo:
General
Unique ID                   : 214694183509786278606853138935281268851 (0xA184987F2FFD25A48C44291EC7F6B873)
Complete name               : H:Мои ДокументыВидеоРАЗДАЧИЗАТЕРЯННЫЕLost in Space S01 WEBRip 720p (OMSKBIRD)Lost in Space S01E01 WEBRip 720p (OMSKBIRD).mkv
Format                      : Matroska
Format version              : Version 2
File size                   : 1.38 GiB
Duration                    : 1 h 4 min
Overall bit rate            : 3 076 kb/s
Encoded date                : UTC 2018-04-14 16:37:47
Writing application         : mkvmerge v4.0.0 ('The Stars were mine') сборка от Jun  6 2010 16:18:42
Writing library             : libebml v1.0.0 + libmatroska v1.0.0

Video
ID                          : 1
Format                      : AVC
Format/Info                 : Advanced Video Codec
Format profile              : Baseline@L3.2
Format settings, CABAC      : No
Format settings, RefFrames  : 3 frames
Format settings, GOP        : M=1, N=23
Codec ID                    : V_MPEG4/ISO/AVC
Duration                    : 1 h 4 min
Bit rate                    : 2 823 kb/s
Width                       : 1 280 pixels
Height                      : 720 pixels
Display aspect ratio        : 16:9
Frame rate mode             : Constant
Frame rate                  : 23.976 (24000/1001) FPS
Standard                    : NTSC
Color space                 : YUV
Chroma subsampling          : 4:2:0
Bit depth                   : 8 bits
Scan type                   : Progressive
Bits/(Pixel*Frame)          : 0.128
Stream size                 : 1.27 GiB (92%)
Language                    : English
Default                     : Yes
Forced                      : No
Color range                 : Limited
Color primaries             : BT.709
Transfer characteristics    : BT.709
Matrix coefficients         : BT.709

Audio
ID                          : 2
Format                      : AC-3
Format/Info                 : Audio Coding 3
Format settings, Endianness : Big
Codec ID                    : A_AC3
Duration                    : 1 h 4 min
Bit rate mode               : Constant
Bit rate                    : 192 kb/s
Channel(s)                  : 2 channels
Channel positions           : Front: L R
Sampling rate               : 48.0 kHz
Frame rate                  : 31.250 FPS (1536 SPF)
Bit depth                   : 16 bits
Compression mode            : Lossy
Stream size                 : 88.2 MiB (6%)
Service kind                : Complete Main
Default                     : Yes
Forced                      : No




Скриншоты:
[+] Всего файлов в раздаче - 3:
Lost in Space S01E01 WEBRip 720p (OMSKBIRD).mkv1.38 GB
Lost in Space S01E02 WEBRip 720p (OMSKBIRD).mkv1.22 GB
Lost in Space S01E03 WEBRip 720p (OMSKBIRD).mkv1.21 GB

Текущая раздача:
ДатаКомментарии    РазмерПиры
2018-04-15 U Затерянные в космосе / Lost in Space [01x01-03 из 10] (2018) WEBRip 720p | OMSKBIRD 3.81 GB ↑ 135 ↓ 35

Показать еще раздачи по запросу затерянные:
2018-04-21 U Затерянные в космосе / Lost in Space [01х01-02 из 10] (2018) WEBRip | LostFilm 1.46 GB ↑ 42 ↓ 16
2018-04-21 U Затерянные в космосе / Lost in Space [01х01-04 из 10] (2018) WEBRip-AVC | AlexFilm 4.94 GB ↑ 37 ↓ 49
2018-04-21 U Затерянные в космосе / Lost in Space [01х01-02 из 10] (2018) WEBRip 1080p | LostFilm 3.99 GB ↑ 51 ↓ 40
2018-04-18 U Затерянные в космосе / Lost in Space [S01] (2018) WEBRip | BaibaKo 10.84 GB ↑ 102 ↓ 30
2018-04-17 U Затерянные в космосе / Lost in Space [01х01 из 10] (2018) WEBRip 1080p | LostFilm 1.96 GB ↑ 74 ↓ 11
2018-04-17 U Затерянные в космосе / Lost in Space [S01] (2018) WEB-DLRip | Gears Media 6.01 GB ↑ 69 ↓ 60
2018-04-16 U Затерянные в космосе / Lost in Space [01х01-05 из 10] (2018) WEBRip | BaibaKo 5.52 GB ↑ 63 ↓ 91

Отзывы
Зарегистрируйтесь чтобы добавить комментарий.
Обратная связь
Copyleft ©