↑↓Torrent.by
Поиск
Логин: Регистрация
Пароль: Восстановить пароль
Загрузка...

Затерянные в космосе / Lost in Space [01x01-03 из 10] (2018) WEBRip | OMSKBIRD

Скачать zateryannye-v-kosmose-lost-in-space-01x01-03-iz-10-2018-webrip-omskbird.torrent
U Магнитная ссылка Размер: 2.39 GB Раздают: 110 Качают: 26 Добавлен: 2018-04-15 05:11:41
Затерянные в космосе / Lost in Space [01x01-03 из 10] (2018) WEBRip | OMSKBIRD

Название: Затерянные в космосе
Оригинальное название: Lost in Space
Год выхода: 2018
Жанр: фантастика
Режиссер: Тим Соутэм, Дебора Чоу, Стивен Серджик
В ролях: Молли Паркер, Тоби Стивенс, Паркер Поузи, Игнасио Серричио, Раза Джеффри, Адам Рейд, Кики Сукизейн, Сибо Мламбо и др.

О фильме:
2046 год. Космический корабль теряется в космосе и терпит крушение на планете на расстоянии нескольких световых лет от планируемого места назначения. Его обитатели, семья Робинсонов, вынуждены приспособиться и выжить в новых условиях.

Страна: США
Продолжительность: ~ 60 мин. серия
Перевод: Любительский (многоголосый закадровый) | OMSKBIRD

Файл
Кодек: Xvid
Качество: WEBRip
Видео: AVI, 720x400 (16:9), 23.976 fps, ~ 1800 kbps
Звук: Аудио rus: AC-3, 48 KHz, 2 ch, 192 kbps | OMSKBIRD records

Семпл

Присутствует реклама!


[+] Mediainfo:
General
Complete name               : H:Мои ДокументыВидеоРАЗДАЧИЗАТЕРЯННЫЕLost in Space S01 WEBRip (OMSKBIRD)Lost in Space S01E01 WEBRip (OMSKBIRD).avi
Format                      : AVI
Format/Info                 : Audio Video Interleave
File size                   : 886 MiB
Duration                    : 1 h 4 min
Overall bit rate            : 1 929 kb/s
Writing application         : VirtualDubMod 1.5.10.3 | www.virtualdub-fr.org || (build 2550/release)
Writing library             : VirtualDubMod build 2550/release

Video
ID                          : 0
Format                      : MPEG-4 Visual
Format profile              : Advanced Simple@L5
Format settings, BVOP       : 1
Format settings, QPel       : No
Format settings, GMC        : No warppoints
Format settings, Matrix     : Default (H.263)
Codec ID                    : XVID
Codec ID/Hint               : XviD
Duration                    : 1 h 4 min
Bit rate                    : 1 730 kb/s
Width                       : 720 pixels
Height                      : 400 pixels
Display aspect ratio        : 16:9
Frame rate                  : 23.976 (24000/1001) FPS
Color space                 : YUV
Chroma subsampling          : 4:2:0
Bit depth                   : 8 bits
Scan type                   : Progressive
Compression mode            : Lossy
Bits/(Pixel*Frame)          : 0.251
Stream size                 : 795 MiB (90%)
Writing library             : XviD 67

Audio
ID                          : 1
Format                      : AC-3
Format/Info                 : Audio Coding 3
Format settings, Endianness : Big
Codec ID                    : 2000
Duration                    : 1 h 3 min
Bit rate mode               : Constant
Bit rate                    : 192 kb/s
Channel(s)                  : 2 channels
Channel positions           : Front: L R
Sampling rate               : 48.0 kHz
Frame rate                  : 31.250 FPS (1536 SPF)
Bit depth                   : 16 bits
Compression mode            : Lossy
Stream size                 : 87.0 MiB (10%)
Alignment                   : Split accross interleaves
Interleave, duration        : 42  ms (1.01 video frame)
Interleave, preload duratio : 500  ms
Service kind                : Complete Main




Скриншоты:
[+] Всего файлов в раздаче - 3:
Lost in Space S01E01 WEBRip (OMSKBIRD).avi886.04 MB
Lost in Space S01E02 WEBRip (OMSKBIRD).avi783.71 MB
Lost in Space S01E03 WEBRip (OMSKBIRD).avi776.63 MB

Текущая раздача:
ДатаКомментарии    РазмерПиры
2018-04-15 U Затерянные в космосе / Lost in Space [01x01-03 из 10] (2018) WEBRip | OMSKBIRD 2.39 GB ↑ 110 ↓ 26

Показать еще раздачи по запросу затерянные:
2018-04-21 U Затерянные в космосе / Lost in Space [01х01-02 из 10] (2018) WEBRip | LostFilm 1.46 GB ↑ 44 ↓ 16
2018-04-21 U Затерянные в космосе / Lost in Space [01х01-04 из 10] (2018) WEBRip-AVC | AlexFilm 4.94 GB ↑ 40 ↓ 49
2018-04-21 U Затерянные в космосе / Lost in Space [01х01-02 из 10] (2018) WEBRip 1080p | LostFilm 3.99 GB ↑ 51 ↓ 40
2018-04-18 U Затерянные в космосе / Lost in Space [S01] (2018) WEBRip | BaibaKo 10.84 GB ↑ 103 ↓ 30
2018-04-17 U Затерянные в космосе / Lost in Space [01х01 из 10] (2018) WEBRip 1080p | LostFilm 1.96 GB ↑ 74 ↓ 12
2018-04-17 U Затерянные в космосе / Lost in Space [S01] (2018) WEB-DLRip | Gears Media 6.01 GB ↑ 70 ↓ 61
2018-04-16 U Затерянные в космосе / Lost in Space [01х01-05 из 10] (2018) WEBRip | BaibaKo 5.52 GB ↑ 64 ↓ 92

Отзывы
Зарегистрируйтесь чтобы добавить комментарий.
Обратная связь
Copyleft ©