↑↓Torrent.by
Поиск
Логин: Регистрация
Пароль: Восстановить пароль
Загрузка...

Проблемы - мой конёк / Trouble Is My Business (2018) WEBRip | L2

Скачать problemy-moy-konek-trouble-is-my-business-2018-webrip-l2.torrent
U Магнитная ссылка Размер: 1.41 GB Раздают: 103 Качают: 33 Добавлен: 2018-04-15 05:11:47
Проблемы - мой конёк / Trouble Is My Business (2018) WEBRip | L2

Название: Проблемы - мой конёк
Оригинальное название: Trouble Is My Business
Год выхода: 2018
Жанр: криминал, приключения
Режиссер: Том Конкл
В ролях: Вернон Уэллс, Бриттни Пауэлл, Стив Том, Джордана Капра, Стив Олсон, Дуглас Спирман, Бен Паке, Марк Тич, Джо Собало мл. и другие
О фильме:
Лос-Анджелес, 1947-ой год. Частный детектив Роланд Дрэйк расследует дела, пока городом управляют коррумпированные копы. В этой бесконечной борьбе добра и зла он встречает роковую женщину, которая подбрасывает ему новую загадку и сама вскоре становится таковой.

Страна: США, Lumen Actus
Продолжительность: 01:52:57
Перевод: Любительский (двухголосый закадровый) | HiWay Grope

Файл
Кодек: XviD
Качество: WEBRip
Видео: 720x384, 23.976 fps, ~1398 kbps, 0.21 bit/pixel
Звук:
Аудио rus: AC3, 48 kHz, 6 ch, 384 Kbps
Субтитры: отсутствуют

Реклама: присутствует

Семпл

Релиз от: HiWay Grope


[+] MediaInfo:

General
Complete name                            : E:Trouble.Is.My.Business.2018.WEBRip.HiWayGropeTrouble.Is.My.Business.2018.WEBRip.HiWayGrope.avi
Format                                   : AVI
Format/Info                              : Audio Video Interleave
File size                                : 1.41 GiB
Duration                                 : 1h 52mn
Overall bit rate                         : 1 792 Kbps
Writing application                      : VirtualDubMod 1.5.10.3 (build 2550/release)
Writing library                          : VirtualDubMod build 2550/release

Video
ID                                       : 0
Format                                   : MPEG-4 Visual
Format profile                           : Advanced Simple@L5
Format settings, BVOP                    : 1
Format settings, QPel                    : No
Format settings, GMC                     : No warppoints
Format settings, Matrix                  : Default (MPEG)
Codec ID                                 : XVID
Codec ID/Hint                            : XviD
Duration                                 : 1h 52mn
Bit rate                                 : 1 398 Kbps
Width                                    : 720 pixels
Height                                   : 384 pixels
Display aspect ratio                     : 1.85:1
Frame rate                               : 23.976 (23976/1000) fps
Color space                              : YUV
Chroma subsampling                       : 4:2:0
Bit depth                                : 8 bits
Scan type                                : Progressive
Compression mode                         : Lossy
Bits/(Pixel*Frame)                       : 0.211
Stream size                              : 1.10 GiB (78%)
Writing library                          : XviD 73

Audio
ID                                       : 1
Format                                   : AC-3
Format/Info                              : Audio Coding 3
Mode extension                           : CM (complete main)
Format settings, Endianness              : Big
Codec ID                                 : 2000
Duration                                 : 1h 52mn
Bit rate mode                            : Constant
Bit rate                                 : 384 Kbps
Channel(s)                               : 6 channels
Channel positions                        : Front: L C R, Side: L R, LFE
Sampling rate                            : 48.0 KHz
Frame rate                               : 31.250 fps (1536 spf)
Compression mode                         : Lossy
Stream size                              : 310 MiB (21%)
Alignment                                : Split accross interleaves
Interleave, duration                     : 42 ms (1.00 video frame)
Interleave, preload duration             : 500 ms




Скриншоты:
[+] Всего файлов в раздаче - 1:
Trouble.Is.My.Business.2018.WEBRip.HiWayGrope.avi1.41 GB

Текущая раздача:
ДатаКомментарии    РазмерПиры
2018-04-15 U Проблемы - мой конёк / Trouble Is My Business (2018) WEBRip | L2 1.41 GB ↑ 103 ↓ 33

Показать еще раздачи по запросу проблемы:
2018-08-30 U Проблемы серых пришельцев / Серое вещество / Gray Matter (2018) WEBRip 1080p | GreenРай Studio 2.78 GB ↑ 36 ↓ 11
2018-08-29 U Проблемы серых пришельцев / Серое вещество / Gray Matter (2018) WEBRip | GreenРай Studio 1.36 GB ↑ 99 ↓ 31
2018-08-24 U Проблемы серых пришельцев / Gray Matter (2018) WEB-DL 1080p | L1 3.02 GB ↑ 102 ↓ 35
2018-05-29 U Проблемы Серых пришельцев / Gray Matter (2018) WEBRip | L1 1.21 GB ↑ 416 ↓ 94
2018-04-16 U Проблемы - мой конёк / Trouble Is My Business (2018) WEB-DL 1080p от New-Team | HiWay Grope 4.33 GB ↑ 77 ↓ 54
2018-04-15 U Проблемы - мой конёк / Trouble Is My Business (2018) WEB-DLRip-AVC от New-Team | HiWay Grope 1.46 GB ↑ 124 ↓ 68
2018-04-15 U Проблемы - мой конёк / Trouble Is My Business (2018) WEBRip 720p | L2 2.65 GB ↑ 62 ↓ 27

Отзывы
Зарегистрируйтесь чтобы добавить комментарий.
Обратная связь
Copyleft ©