↑↓Torrent.by
Поиск
Логин: Регистрация
Пароль: Восстановить пароль
Загрузка...

Кавалерия / 12 Strong (2018) WEB-DLRip-AVC от ExKinoRay | HDRezka Studio

Скачать kavaleriya-12-strong-2018-web-dlrip-avc-ot-exkinoray-hdrezka-studio.torrent
U Магнитная ссылка Размер: 745.88 MB Раздают: 46 Качают: 32 Добавлен: 2018-04-15 05:13:53
Кавалерия / 12 Strong (2018) WEB-DLRip-AVC от ExKinoRay | HDRezka Studio

Название: Кавалерия (Двенадцать сильных)
Оригинальное название: 12 Strong
Год выпуска: 2018
Жанр:  Боевик, драма, военный, история
Режиссер: Николай Фьюлси
В ролях: Крис Хемсворт, Майкл Шеннон, Уильям Фихтнер, Эльза Патаки, Тейлор Шеридан, Джофф Стульц, Майкл Пенья, Роб Риггл, Треванте Роудс, Джек Кеси

О фильме :
Правдивая драма об отряде американских солдат специального назначения, которых после трагедии 11 сентября 2001 года перебрасывают на антитеррористическую миссию в Афганистан. Элитные бойцы, вынужденные наступать верхом на лошадях, сталкиваются с целой армией талибов.

Страна: США
Студия: Alcon Entertainment, Lionsgate
Продолжительность: 02:09:50
Перевод: Любительский (многоголосый, закадровый) | HDrezka Studio

Файл
Формат: MKV
Качество: WEB-DLRip-AVC
Видео: MPEG-4 AVC, 768x320, ~ 726 Кбит/с
Аудио:  AAC-HE, 2 ch, ~ 76 Кбит/с
Субтитры: Нет

Релиз:


[+] MI
Общее
Уникальный идентификатор : 5841066051387201318255536918683592425 (0x464F2CA71AD28E97A0519EA15FA26E9)
Полное имя : D:MOVIES12.Strong.2018.ExKinoRay.mkv
Формат : Matroska
Версия формата : Version 2
Размер файла : 746 Мбайт
Продолжительность : 2 ч. 10 м.
Общий поток : 802 Кбит/сек
Дата кодирования : UTC 2018-04-14 18:28:37
Программа кодирования : mkvmerge v22.0.0 ('At The End Of The World') 64-bit
Библиотека кодирования : libebml v1.3.5 + libmatroska v1.4.8

Видео
Идентификатор : 1
Формат : AVC
Формат/Информация : Advanced Video Codec
Профиль формата : High@L4.1
Параметр CABAC формата : Да
Параметр RefFrames формата : 10 кадров
Идентификатор кодека : V_MPEG4/ISO/AVC
Продолжительность : 2 ч. 9 м.
Битрейт : 726 Кбит/сек
Ширина : 768 пикселей
Высота : 320 пикселей
Соотношение сторон : 2,40:1
Режим частоты кадров : Постоянный
Частота кадров : 23,976 (24000/1001) кадра/сек
Цветовое пространство : YUV
Субдискретизация насыщенности : 4:2:0
Битовая глубина : 8 бит
Тип развёртки : Прогрессивная
Бит/(Пиксели*Кадры) : 0.123
Размер потока : 674 Мбайт (90%)
Библиотека кодирования : x264 core 155 r2901 7d0ff22
Настройки программы : cabac=1 / ref=10 / deblock=1:-3:-3 / analyse=0x3:0x133 / me=umh / subme=11 / psy=1 / psy_rd=1.00:0.10 / mixed_ref=1 / me_range=32 / chroma_me=1 / trellis=2 / 8x8dct=1 / cqm=0 / deadzone=21,11 / fast_pskip=0 / chroma_qp_offset=-3 / threads=6 / lookahead_threads=1 / sliced_threads=0 / nr=0 / decimate=0 / interlaced=0 / bluray_compat=0 / constrained_intra=0 / bframes=10 / b_pyramid=2 / b_adapt=2 / b_bias=0 / direct=3 / weightb=1 / open_gop=0 / weightp=2 / keyint=240 / keyint_min=23 / scenecut=40 / intra_refresh=0 / rc_lookahead=40 / rc=2pass / mbtree=1 / bitrate=726 / ratetol=1.0 / qcomp=0.60 / qpmin=0 / qpmax=69 / qpstep=4 / cplxblur=20.0 / qblur=0.5 / vbv_maxrate=50000 / vbv_bufsize=62500 / nal_hrd=none / filler=0 / ip_ratio=1.40 / aq=3:1.00
Default : Да
Forced : Нет

Аудио
Идентификатор : 2
Формат : AAC
Формат/Информация : Advanced Audio Codec
Профиль формата : HE-AAC / LC
Идентификатор кодека : A_AAC
Продолжительность : 2 ч. 10 м.
Битрейт : 76,0 Кбит/сек
Каналы : 2 канала
Расположение каналов : Front: L R
Частота : 48,0 КГц / 24,0 КГц
Частота кадров : 23,438 кадра/сек (1024 SPF)
Метод сжатия : С потерями
Задержка видео : 31 мс.
Размер потока : 70,7 Мбайт (9%)
Язык : Russian
Default : Да
Forced : Нет



Скриншоты:
[+] Всего файлов в раздаче - 1:
12.Strong.2018.ExKinoRay.mkv745.88 MB

Текущая раздача:
ДатаКомментарии    РазмерПиры
2018-04-15 U Кавалерия / 12 Strong (2018) WEB-DLRip-AVC от ExKinoRay | HDRezka Studio 745.88 MB ↑ 46 ↓ 32

Похожие раздачи по запросу - кавалерия:
2018-04-18 U Кавалерия / 12 Strong (2018) WEB-DL 1080p от New-Team | HDrezka Studio 4.54 GB ↑ 45 ↓ 11
2018-04-17 U Кавалерия / 12 Strong (2018) WEB-DLRip от Scarabey | HDrezka Studio 1.45 GB ↑ 77 ↓ 21
2018-04-14 U Кавалерия / 12 Strong (2018) WEB-DLRip от MegaPeer | HDRezka Studio 1.47 GB ↑ 134 ↓ 102
2018-04-14 U Кавалерия / 12 Strong (2018) WEB-DLRip | L 1К1.47 GB ↑ 160 ↓ 79
2018-04-14 U Кавалерия / 12 Strong (2018) WEB-DLRip | HDRezka Studio 1.33 GB ↑ 112 ↓ 106
2018-04-14 U Кавалерия / 12 Strong (2018) WEB-DL 1080p | HDRezka Studio 4.81 GB ↑ 106 ↓ 176

Отзывы
Зарегистрируйтесь чтобы добавить комментарий.
Обратная связь
Copyleft ©