↑↓Torrent.by
Поиск
Логин: Регистрация
Пароль: Восстановить пароль
Загрузка...

Проблемы - мой конёк / Trouble Is My Business (2018) WEBRip 720p | L2

Скачать problemy-moy-konek-trouble-is-my-business-2018-webrip-720p-l2.torrent
U Магнитная ссылка Размер: 2.65 GB Раздают: 62 Качают: 26 Добавлен: 2018-04-15 12:12:38
Проблемы - мой конёк / Trouble Is My Business (2018) WEBRip 720p | L2

Название: Проблемы - мой конёк
Оригинальное название: Trouble Is My Business
Год выхода: 2018
Жанр: криминал, приключения
Режиссер: Том Конкл
В ролях: Вернон Уэллс, Бриттни Пауэлл, Стив Том, Джордана Капра, Стив Олсон, Дуглас Спирман, Бен Паке, Марк Тич, Джо Собало мл. и другие
О фильме:
Лос-Анджелес, 1947-ой год. Частный детектив Роланд Дрэйк расследует дела, пока городом управляют коррумпированные копы. В этой бесконечной борьбе добра и зла он встречает роковую женщину, которая подбрасывает ему новую загадку и сама вскоре становится таковой.

Страна: США, Lumen Actus
Продолжительность: 01:52:57
Перевод: Любительский (двухголосый закадровый) | HiWay Grope

Файл
Кодек: MPEG-4 AVC/x.264
Качество: WEBRip 720p
Видео: 1280x672, 23.976 fps, ~2911 kbps, 0.141 bit/pixel
Звук:
Аудио rus: AC3, 48 kHz, 6 ch, 384 Kbps
Субтитры: отсутствуют

Реклама: присутствует

Семпл

Релиз от: HiWay Grope


[+] MediaInfo:

General
Unique ID                                : 60065551068872198707648175187453149537 (0x2D30344FD214DF1C36DD532B594A0161)
Complete name                            : E:Trouble.Is.My.Business.2018.720p.WEBRip.HiWayGropeTrouble.Is.My.Business.2018.720p.WEBRip.HiWayGrope.mkv
Format                                   : Matroska
Format version                           : Version 4 / Version 2
File size                                : 2.65 GiB
Duration                                 : 1h 52mn
Overall bit rate                         : 3 362 Kbps
Encoded date                             : UTC 2018-04-14 15:24:09
Writing application                      : mkvmerge v21.0.0 ('Tardigrades Will Inherit The Earth') 64-bit
Writing library                          : libebml v1.3.5 + libmatroska v1.4.8

Video
ID                                       : 1
Format                                   : AVC
Format/Info                              : Advanced Video Codec
Format profile                           : Main@L4.1
Format settings, CABAC                   : Yes
Format settings, ReFrames                : 4 frames
Codec ID                                 : V_MPEG4/ISO/AVC
Duration                                 : 1h 52mn
Bit rate                                 : 2 911 Kbps
Width                                    : 1 280 pixels
Height                                   : 672 pixels
Display aspect ratio                     : 1.905
Frame rate mode                          : Constant
Frame rate                               : 23.976 (24000/1001) fps
Standard                                 : NTSC
Color space                              : YUV
Chroma subsampling                       : 4:2:0
Bit depth                                : 8 bits
Scan type                                : Progressive
Bits/(Pixel*Frame)                       : 0.141
Stream size                              : 2.30 GiB (87%)
Language                                 : English
Default                                  : Yes
Forced                                   : No
Color range                              : Limited
Color primaries                          : BT.709
Transfer characteristics                 : BT.709
Matrix coefficients                      : BT.709

Audio
ID                                       : 2
Format                                   : AC-3
Format/Info                              : Audio Coding 3
Mode extension                           : CM (complete main)
Format settings, Endianness              : Big
Codec ID                                 : A_AC3
Duration                                 : 1h 52mn
Bit rate mode                            : Constant
Bit rate                                 : 384 Kbps
Channel(s)                               : 6 channels
Channel positions                        : Front: L C R, Side: L R, LFE
Sampling rate                            : 48.0 KHz
Frame rate                               : 31.250 fps (1536 spf)
Compression mode                         : Lossy
Stream size                              : 310 MiB (11%)
Title                                    : rus
Language                                 : Russian
Default                                  : Yes
Forced                                   : No




Скриншоты:
[+] Всего файлов в раздаче - 1:
Trouble.Is.My.Business.2018.720p.WEBRip.HiWayGrope.mkv2.65 GB

Текущая раздача:
ДатаКомментарии    РазмерПиры
2018-04-15 U Проблемы - мой конёк / Trouble Is My Business (2018) WEBRip 720p | L2 2.65 GB ↑ 62 ↓ 26

Похожие раздачи по запросу - проблемы:
2018-04-16 U Проблемы - мой конёк / Trouble Is My Business (2018) WEB-DL 1080p от New-Team | HiWay Grope 4.33 GB ↑ 54 ↓ 53
2018-04-15 U Проблемы - мой конёк / Trouble Is My Business (2018) WEB-DLRip-AVC от New-Team | HiWay Grope 1.46 GB ↑ 121 ↓ 66
2018-04-15 U Проблемы - мой конёк / Trouble Is My Business (2018) WEBRip | L2 1.41 GB ↑ 86 ↓ 32

Отзывы
Зарегистрируйтесь чтобы добавить комментарий.
Обратная связь
Copyleft ©