↑↓Torrent.by
Поиск
Логин: Регистрация
Пароль: Восстановить пароль
Загрузка...

Звездные войны: Последние джедаи / Star Wars: Episode VIII - The Last Jedi (2017) HDRip от Seven | A

Скачать zvezdnye-voyny-poslednie-dzhedai-star-wars-episode-viii-the-last-jedi-2017-hdrip-ot-seven-a.torrent
U Магнитная ссылка Размер: 2.18 GB Раздают: 59 Качают: 31 Добавлен: 2018-04-15 12:12:53
Звездные войны: Последние джедаи / Star Wars: Episode VIII - The Last Jedi (2017) HDRip от Seven | A

Название: Звездные войны: Последние джедаи
Оригинальное название: Star Wars: Episode VIII - The Last Jedi
Страна: США / Lucasfilm Ltd.
Жанр:  фантастика, фэнтези, боевик, приключения
Год выпуска: 2017
Продолжительность: 02:31:51
Перевод: Авторский (одноголосый закадровый) Ю. Живов
Субтитры: нет

Режиссер: Райан Джонсон / Rian Johnson

В ролях: Марк Хэмилл, Кэрри Фишер, Адам Драйвер, Дэйзи Ридли, Джон Бойега, Оскар Айзек, Энди Серкис, Лупита Нионго, Донал Глисон, Энтони Дэниелс.

Описание: Новая история о противостоянии света и тьмы, добра и зла начинается после гибели Хана Соло. В Галактике, где Первый Орден и Сопротивление яростно сражаются друг с другом в войне, героиня Рей пробудила в себе Силу. Но что произойдет, когда она встретится с единственным оставшимся в живых рыцарем-джедаем — Люком Скайуокером? Кайло Рен перешел на Темную сторону Силы и убил собственного отца, заняв высокую позицию в Первом Ордене. Но куда приведут его неуемные амбиции, подаренные по наследству грозным дедом Дартом Вейдером? Ситуация обострится еще больше, когда мать Кайло, лидер Сопротивления Лея, вместе с По, Финном и BB-8 приступит к новой миссии.

Качество видео: HDRip (исходник: BDRip / 1080p)
Формат видео: AVI | Семпл


Видео: 720x304 (2.37:1), 23.976 fps, XviD build 73 ~1598 kbps avg, 0.30 bit/pixel
Аудио: 48 kHz, AC3 Dolby Digital, 3/2 (L,C,R,l,r) + LFE ch, ~448.00 kbps avg | RUS
[+] Инфо
Формат                                   : AVI
Формат/Информация                        : Audio Video Interleave
Профиль формата                          : OpenDML
Размер файла                             : 2,18 Гбайт
Продолжительность                        : 2 ч. 31 м.
Общий поток                              : 2057 Кбит/сек
Название фильма                          : Звездные войны: Последние джедаи / Star Wars: Episode VIII - The Last Jedi (2017)
Программа кодирования                    : VirtualDubMod 1.5.10.2 (build 2540/release)
Библиотека кодирования                   : VirtualDubMod build 2540/release
Примечание                               : HDRip by Seven

Видео
Идентификатор                            : 0
Формат                                   : MPEG-4 Visual
Профиль формата                          : Advanced Simple@L5
Настройки формата                        : BVOP1 / Custom Matrix
Параметр BVOP формата                    : 1
Параметр QPel формата                    : Нет
Параметр GMC формата                     : Без точки перехода
Параметр матрицы формата                 : Выборочная
Идентификатор кодека                     : XVID
Идентификатор кодека/Подсказка           : XviD
Продолжительность                        : 2 ч. 31 м.
Битрейт                                  : 1598 Кбит/сек
Ширина                                   : 720 пикселей
Высота                                   : 304 пикселя
Соотношение сторон                       : 2,35:1
Частота кадров                           : 23,976 (24000/1001) кадра/сек
Цветовое пространство                    : YUV
Субдискретизация насыщенности            : 4:2:0
Битовая глубина                          : 8 бит
Тип развёртки                            : Прогрессивная
Метод сжатия                             : С потерями
Бит/(Пиксели*Кадры)                      : 0.304
Размер потока                            : 1,69 Гбайт (78%)
Библиотека кодирования                   : XviD 73

Аудио
Идентификатор                            : 1
Формат                                   : AC-3
Формат/Информация                        : Audio Coding 3
Параметр Endianness формата              : Big
Идентификатор кодека                     : 2000
Продолжительность                        : 2 ч. 31 м.
Вид битрейта                             : Постоянный
Битрейт                                  : 448 Кбит/сек
Каналы                                   : 6 каналов
Расположение каналов                     : Front: L C R, Side: L R, LFE
Частота                                  : 48,0 КГц
Частота кадров                           : 31,250 кадров/сек (1536 SPF)
Битовая глубина                          : 16 бит
Метод сжатия                             : С потерями
Размер потока                            : 487 Мбайт (22%)
Выравнивание                             : Разделение по промежуткам
Продолжительность промежутка             : 42  мс. (1,00 видеокадр)
Время предзагрузки промежутка            : 500  мс.



Скриншоты:
[+] Всего файлов в раздаче - 1:
Star.Wars.Episode.VIII.The.Last.Jedi.2017.HDRip.by.Seven.avi2.18 GB

Текущая раздача:
ДатаКомментарии    РазмерПиры
2018-04-15 U Звездные войны: Последние джедаи / Star Wars: Episode VIII - The Last Jedi (2017) HDRip от Seven | A 2.18 GB ↑ 59 ↓ 31

Показать еще раздачи по запросу звездные:
2018-03-30 U Звёздные войны: Последние джедаи / Star Wars: Episode VIII - The Last Jedi (2017) BDRip 1080p от Ash61 | 3D-Video | halfOU | iTunes 13.82 GB ↑ 84 ↓ 58
2018-03-25 U Звездные войны: Последние джедаи / Star Wars: Episode VIII - The Last Jedi (2017) HDRip-AVC от ExKinoRay | Живов 2.81 GB ↑ 67 ↓ 37
2018-03-25 U Звездные войны: Последние джедаи / Star Wars: Episode VIII - The Last Jedi (2017) UHD BDRemux 2160p от ExKinoRay | 4K | HDR | D, A | iTunes 58.97 GB ↑ 86 ↓ 26
2018-03-16 U Звездные войны: Последние джедаи / Star Wars: Episode VIII - The Last Jedi (2017) BDRip-AVC от HELLYWOOD | iTunes 1.46 GB ↑ 225 ↓ 104
2018-03-16 U Звёздные войны: Последние джедаи / Star Wars: Episode VIII - The Last Jedi (2017) BDRip 720p от R.G. HD-Films | 60 fps | iTunes 5.95 GB ↑ 271 ↓ 217
2018-03-16 U Звёздные войны: Последние джедаи / Star Wars: Episode VIII - The Last Jedi (2017) BDRip 1080p | iTunes 18.72 GB ↑ 153 ↓ 200
2018-03-16 U Звездные войны: Последние джедаи / Star Wars: Episode VIII - The Last Jedi (2017) BDRip от ExKinoRay | iTunes 2.12 GB ↑ 165 ↓ 53

Отзывы
Зарегистрируйтесь чтобы добавить комментарий.
Обратная связь
Copyleft ©