↑↓Torrent.by
Поиск
Логин: Регистрация
Пароль: Восстановить пароль
Загрузка...

Бегущий в лабиринте: Лекарство от смерти / Maze Runner: The Death Cure (2018) BDRemux 1080p от ExKinoRay | Line

Скачать beguschiy-v-labirinte-lekarstvo-ot-smerti-maze-runner-the-death-cure-2018-bdremux-1080p-exkinoray-line.torrent
U Магнитная ссылка Размер: 29.01 GB Раздают: 180 Качают: 266 Добавлен: 2018-04-15 19:39:21
Бегущий в лабиринте: Лекарство от смерти / Maze Runner: The Death Cure (2018) BDRemux 1080p от ExKinoRay | Line

Название: Бегущий в лабиринте: Лекарство от смерти
Оригинальное название: Maze Runner: The Death Cure
Год выхода: 2018
Жанр: Фантастика, боевик, триллер
Режиссер: Уэс Болл
В ролях: Дилан О`Брайэн, Ки Хонг Ли, Кая Скоделарио, Уилл Поултер, Томас Броди Сэнгстер, Патришия Кларксон, Амл Амин, Крис Шеффилд, Карл Грин

О фильме:
Томас возглавляет отряд выживших глейдеров, чтобы выполнить последнюю и самую опасную миссию. Ради спасения своих друзей они должны проникнуть в легендарный Последний город, смертоносный лабиринт, контролируемый ПОРОКом. Каждый, кто выживет там, наконец-то получит ответы на все вопросы, которые мучили глейдеров с момента попадания в лабиринт.

Страна: США
Студия: 20th Century Fox, Gotham Group, Temple Hill Entertainment
Продолжительность: 02:23:52
Перевод: Дублированный | Чистый звук

Качество: BDRemux 1080p
Видео: MPEG-4 AVC, 1920x1080, 23.4 Мbit/s, 23.976 fps
Звук:
Аудио #01: 48 kHz, AC3, 2.0, 384 Kbps | Дублированный | RUS |
Аудио #02: 48 kHz, DTS-HD MA, 7.1, 5120 Kbps | Оригинал |  ENG |
Субтитры: Русские (full), украинские (full), английские

Релиз: Автор релиза:


[+] MI
General
Unique ID                   : 45393652194858801395140016078282059645 (0x22267FD8FCD2647C1DBDBA8CE4C46F7D)
Complete name               : C:Video111Maze.Runner.The.Death.Cure.2018.BDREMUX.1080p.ExKinoRay.mkv
Format                      : Matroska
Format version              : Version 4 / Version 2
File size                   : 29.0 GiB
Duration                    : 2 h 23 min
Overall bit rate mode       : Variable
Overall bit rate            : 28.9 Mb/s
Movie name                  : Maze Runner: The Death Cure 2018 from ExKinoRay
Encoded date                : UTC 2018-04-15 10:23:51
Writing application         : mkvmerge v22.0.0 ('At The End Of The World') 64-bit
Writing library             : libebml v1.3.5 + libmatroska v1.4.8

Video
ID                          : 1
Format                      : AVC
Format/Info                 : Advanced Video Codec
Format profile              : High@L4.1
Format settings             : CABAC / 2 Ref Frames
Format settings, CABAC      : Yes
Format settings, ReFrames   : 2 frames
Codec ID                    : V_MPEG4/ISO/AVC
Duration                    : 2 h 23 min
Bit rate mode               : Variable
Bit rate                    : 23.4 Mb/s
Width                       : 1 920 pixels
Height                      : 1 080 pixels
Display aspect ratio        : 16:9
Frame rate mode             : Constant
Frame rate                  : 23.976 (24000/1001) FPS
Color space                 : YUV
Chroma subsampling          : 4:2:0
Bit depth                   : 8 bits
Scan type                   : Progressive
Bits/(Pixel*Frame)          : 0.470
Stream size                 : 23.5 GiB (81%)
Language                    : English
Default                     : Yes
Forced                      : No

Audio #1
ID                          : 2
Format                      : AC-3
Format/Info                 : Audio Coding 3
Codec ID                    : A_AC3
Duration                    : 2 h 23 min
Bit rate mode               : Constant
Bit rate                    : 384 kb/s
Channel(s)                  : 2 channels
Channel positions           : Front: L R
Sampling rate               : 48.0 kHz
Frame rate                  : 31.250 FPS (1536 SPF)
Bit depth                   : 16 bits
Compression mode            : Lossy
Stream size                 : 395 MiB (1%)
Title                       : Dub
Language                    : Russian
Service kind                : Complete Main
Default                     : Yes
Forced                      : Yes

Audio #2
ID                          : 3
Format                      : DTS
Format/Info                 : Digital Theater Systems
Format profile              : MA / Core
Codec ID                    : A_DTS
Duration                    : 2 h 23 min
Bit rate mode               : Variable / Constant
Bit rate                    : 5 120 kb/s / 1 509 kb/s
Channel(s)                  : 8 channels / 6 channels
Channel positions           : Front: L C R, Side: L R, Back: L R, LFE / Front: L C R, Side: L R, LFE
Sampling rate               : 48.0 kHz
Frame rate                  : 93.750 FPS (512 SPF)
Bit depth                   : 24 bits
Compression mode            : Lossless / Lossy
Stream size                 : 5.15 GiB (18%)
Title                       : Original
Language                    : English
Default                     : No
Forced                      : No

Text #1
ID                          : 4
Format                      : UTF-8
Codec ID                    : S_TEXT/UTF8
Codec ID/Info               : UTF-8 Plain Text
Duration                    : 2 h 22 min
Bit rate                    : 55 b/s
Count of elements           : 1389
Stream size                 : 57.6 KiB (0%)
Title                       : Full
Language                    : Russian
Default                     : No
Forced                      : No

Text #2
ID                          : 5
Format                      : UTF-8
Codec ID                    : S_TEXT/UTF8
Codec ID/Info               : UTF-8 Plain Text
Duration                    : 2 h 20 min
Bit rate                    : 49 b/s
Count of elements           : 1397
Stream size                 : 50.4 KiB (0%)
Title                       : Full
Language                    : Ukrainian
Default                     : No
Forced                      : No

Text #3
ID                          : 6
Format                      : UTF-8
Codec ID                    : S_TEXT/UTF8
Codec ID/Info               : UTF-8 Plain Text
Duration                    : 2 h 15 min
Bit rate                    : 35 b/s
Count of elements           : 1475
Stream size                 : 35.5 KiB (0%)
Title                       : Full
Language                    : English
Default                     : No
Forced                      : No

Text #4
ID                          : 7
Format                      : UTF-8
Codec ID                    : S_TEXT/UTF8
Codec ID/Info               : UTF-8 Plain Text
Duration                    : 2 h 15 min
Bit rate                    : 40 b/s
Count of elements           : 1688
Stream size                 : 40.6 KiB (0%)
Title                       : SDH
Language                    : English
Default                     : No
Forced                      : No

Menu
00:00:00.000                : en:00:00:00.000
00:11:31.608                : en:00:11:31.608
00:15:59.750                : en:00:15:59.750
00:20:08.457                : en:00:20:08.457
00:24:34.890                : en:00:24:34.890
00:30:40.547                : en:00:30:40.547
00:36:47.330                : en:00:36:47.330
00:43:15.343                : en:00:43:15.343
00:48:06.342                : en:00:48:06.342
00:55:17.397                : en:00:55:17.397
01:02:42.926                : en:01:02:42.926
01:07:14.489                : en:01:07:14.489
01:11:56.062                : en:01:11:56.062
01:15:48.210                : en:01:15:48.210
01:23:20.329                : en:01:23:20.329
01:29:45.422                : en:01:29:45.422
01:34:00.593                : en:01:34:00.593
01:40:09.795                : en:01:40:09.795
01:43:33.082                : en:01:43:33.082
01:53:38.645                : en:01:53:38.645
01:59:43.885                : en:01:59:43.885
02:04:49.399                : en:02:04:49.399
02:10:03.087                : en:02:10:03.087
02:18:03.859                : en:02:18:03.859



Скриншоты:
[+] Всего файлов в раздаче - 1:
Maze.Runner.The.Death.Cure.2018.BDREMUX.1080p.ExKinoRay.mkv29.01 GB

Текущая раздача:
ДатаКомментарии    РазмерПиры
2018-04-15 U Бегущий в лабиринте: Лекарство от смерти / Maze Runner: The Death Cure (2018) BDRemux 1080p от ExKinoRay | Line 29.01 GB ↑ 180 ↓ 266

Показать еще раздачи по запросу бегущий:
Сегодня U Бегущий в лабиринте: Лекарство от смерти / Maze Runner: The Death Cure (2018) BDRip 720p от Scarabey | iTunes 4.90 GB ↑ 27 ↓ 13
Сегодня U Бегущий в лабиринте: Лекарство от смерти / Maze Runner: The Death Cure (2018) BDRip-AVC от HELLYWOOD | iTunes 2.73 GB ↑ 36 ↓ 8
2018-04-22 U Бегущий в лабиринте: Лекарство от смерти / Maze Runner: The Death Cure (2018) BDRip 1080p | D, L | iTunes 16.98 GB ↑ 67 ↓ 95
2018-04-22 U Бегущий в лабиринте: Лекарство от смерти / Maze Runner: The Death Cure (2018) BDRip-AVC от HELLYWOOD | iTunes 1.39 GB ↑ 37 ↓ 36
2018-04-21 U Бегущий в лабиринте: Лекарство от смерти / Maze Runner: The Death Cure (2018) HDRip от Scarabey | iTunes 1.45 GB ↑ 279 ↓ 29
2018-04-21 U Бегущий в лабиринте: Лекарство от смерти / Maze Runner: The Death Cure (2018) BDRip от ExKinoRay | iTunes 2.12 GB ↑ 191 ↓ 61
2018-04-21 U Бегущий в лабиринте: Лекарство от смерти / Maze Runner: The Death Cure (2018) BDRip-AVC от HELLYWOOD | iTunes 1.39 GB ↑ 152 ↓ 69

Отзывы
Зарегистрируйтесь чтобы добавить комментарий.
Обратная связь
Copyleft ©