↑↓Torrent.by
Поиск
Логин: Регистрация
Пароль: Восстановить пароль
Загрузка...

Проблемы - мой конёк / Trouble Is My Business (2018) WEB-DLRip-AVC от New-Team | HiWay Grope

Скачать problemy-moy-konek-trouble-is-my-business-2018-web-dlrip-avc-ot-new-team-hiway-grope.torrent
U Магнитная ссылка Размер: 1.46 GB Раздают: 118 Качают: 66 Добавлен: 2018-04-15 19:39:34
Проблемы - мой конёк / Trouble Is My Business (2018) WEB-DLRip-AVC от New-Team | HiWay Grope

Проблемы - мой конёк
Trouble Is My Business

«Trouble is his business, and business is good»

Страна: США
Жанр:  криминал, приключения

Год выпуска: 2018
Продолжительность: 01:52:28

Перевод: Любительский (двухголосый, закадровый) [HiWay Grope]
Субтитры: нет
Оригинальная аудиодорожка: нет
Режиссер: Том Конкл / Tom Konkle
В ролях: Вернон Уэллс, Бриттни Пауэлл, Стив Том, Джордана Капра, Стив Олсон, Дуглас Спирман, Бен Паке, Марк Тич, Mollie Fitzgerald, Джо Собало мл., Бентон Дженнингс, Лорен Бернс

Описание:
Лос-Анджелес, 1947-ой год. Частный детектив Роланд Дрэйк расследует дела, пока городом управляют коррумпированные копы. В этой бесконечной борьбе добра и зла он встречает роковую женщину, которая подбрасывает ему новую загадку и сама вскоре становится таковой.

Релиз:

Автор рипа: stalkerok
Удаление рекламы: stalkerok

Семпл

Качество видео: WEB-DLRip-AVC [Исходник: Trouble Is My Business 2018 1080p WEB-DL DD5 1 H264-CMRG]
Формат видео: MKV
Видео кодек: AVC
Аудио кодек: AC3
Видео: AVC, 1470 Кбит/сек, 1040x546 (1.905), 23,976 кадр/сек
Аудио: AC3, 384 Кбит/сек, 48 КГц, 5.1 - русский
Навигация по главам: есть


[+] x264/MediaInfo


---[Information] [15.04.2018 0:50:12] x264 [info]: frame I:1303  Avg QP:15.36  size: 50264
---[Information] [15.04.2018 0:50:12] x264 [info]: frame P:39263 Avg QP:16.99  size: 16086
---[Information] [15.04.2018 0:50:12] x264 [info]: frame B:121225 Avg QP:19.71  size:  4479

General
Unique ID                                : 232411723529128032484719837752644086707 (0xAED8DEA9B6F10A72BC7D35D03B542BB3)
Complete name                            : V:!RipsTrouble Is My Business (2018)Trouble.Is.My.Business.2018.WEB-DLRip-AVC.Rus.stalkerok.new-team.mkv
Format                                   : Matroska
Format version                           : Version 4 / Version 2
File size                                : 1.46 GiB
Duration                                 : 1 h 52 min
Overall bit rate                         : 1 856 kb/s
Movie name                               : Trouble Is My Business (2018) (Rip by stalkerok)
Encoded date                             : UTC 2018-04-15 09:52:25
Writing application                      : mkvmerge v8.6.1 ('Flying') 64bit
Writing library                          : libebml v1.3.3 + libmatroska v1.4.4

Video
ID                                       : 1
Format                                   : AVC
Format/Info                              : Advanced Video Codec
Format profile                           : High@L4.1
Format settings, CABAC                   : Yes
Format settings, ReFrames                : 14 frames
Codec ID                                 : V_MPEG4/ISO/AVC
Duration                                 : 1 h 52 min
Bit rate                                 : 1 470 kb/s
Width                                    : 1 040 pixels
Height                                   : 546 pixels
Display aspect ratio                     : 1.905
Frame rate mode                          : Constant
Frame rate                               : 23.976 (24000/1001) FPS
Color space                              : YUV
Chroma subsampling                       : 4:2:0
Bit depth                                : 8 bits
Scan type                                : Progressive
Bits/(Pixel*Frame)                       : 0.108
Stream size                              : 1.15 GiB (79%)
Writing library                          : x264 core 155 r2901 7d0ff22
Encoding settings                        : cabac=1 / ref=14 / deblock=1:-3:-2 / analyse=0x3:0x133 / me=umh / subme=11 / psy=1 / psy_rd=1.00:0.00 / mixed_ref=1 / me_range=32 / chroma_me=1 / trellis=2 / 8x8dct=1 / cqm=0 / deadzone=21,11 / fast_pskip=0 / chroma_qp_offset=-2 / threads=12 / lookahead_threads=3 / sliced_threads=0 / nr=0 / decimate=1 / interlaced=0 / bluray_compat=0 / constrained_intra=0 / bframes=15 / b_pyramid=2 / b_adapt=2 / b_bias=0 / direct=3 / weightb=1 / open_gop=0 / weightp=2 / keyint=240 / keyint_min=23 / scenecut=40 / intra_refresh=0 / rc_lookahead=60 / rc=crf / mbtree=0 / crf=18.6 / qcomp=0.65 / qpmin=0 / qpmax=69 / qpstep=4 / vbv_maxrate=50000 / vbv_bufsize=62500 / crf_max=0.0 / nal_hrd=none / filler=0 / ip_ratio=1.40 / pb_ratio=1.30 / aq=3:0.80 / zones=151571,161790,q=34
Language                                 : English
Default                                  : Yes
Forced                                   : No

Audio
ID                                       : 2
Format                                   : AC-3
Format/Info                              : Audio Coding 3
Mode extension                           : CM (complete main)
Format settings, Endianness              : Big
Codec ID                                 : A_AC3
Duration                                 : 1 h 52 min
Bit rate mode                            : Constant
Bit rate                                 : 384 kb/s
Channel(s)                               : 6 channels
Channel positions                        : Front: L C R, Side: L R, LFE
Sampling rate                            : 48.0 kHz
Frame rate                               : 31.250 FPS (1536 spf)
Compression mode                         : Lossy
Stream size                              : 309 MiB (21%)
Title                                    : HiWay Grope
Language                                 : Russian
Default                                  : Yes
Forced                                   : No

Menu
00:00:00.000                             : en:Chapter One
00:15:00.000                             : en:Chapter Two
00:30:00.000                             : en:Chapter Three
00:45:00.000                             : en:Chapter Four
01:00:00.000                             : en:Chapter Five
01:15:00.000                             : en:Chapter Six
01:30:00.000                             : en:Chapter Seven
01:45:00.000                             : en:Chapter Eight




Скриншоты:
[+] Всего файлов в раздаче - 1:
Trouble.Is.My.Business.2018.WEB-DLRip-AVC.Rus.stalkerok.new-team.mkv1.46 GB

Текущая раздача:
ДатаКомментарии    РазмерПиры
2018-04-15 U Проблемы - мой конёк / Trouble Is My Business (2018) WEB-DLRip-AVC от New-Team | HiWay Grope 1.46 GB ↑ 118 ↓ 66

Похожие раздачи по запросу - проблемы:
2018-04-16 U Проблемы - мой конёк / Trouble Is My Business (2018) WEB-DL 1080p от New-Team | HiWay Grope 4.33 GB ↑ 50 ↓ 53
2018-04-15 U Проблемы - мой конёк / Trouble Is My Business (2018) WEBRip 720p | L2 2.65 GB ↑ 62 ↓ 26
2018-04-15 U Проблемы - мой конёк / Trouble Is My Business (2018) WEBRip | L2 1.41 GB ↑ 82 ↓ 32

Отзывы
Зарегистрируйтесь чтобы добавить комментарий.
Обратная связь
Copyleft ©