↑↓Torrent.by
Поиск
Логин: Регистрация
Пароль: Восстановить пароль
Загрузка...

Убийство Джоан / Killing Joan (2018) WEBRip | L2

Скачать ubiystvo-dzhoan-killing-joan-2018-webrip-l2.torrent
U Магнитная ссылка Размер: 1.34 GB Раздают: 103 Качают: 58 Добавлен: 2018-04-15 19:39:46
Убийство Джоан / Killing Joan (2018) WEBRip | L2

Название: Убийство Джоан
Оригинальное название: Killing Joan
Год выхода: 2018
Жанр: Ужасы, боевик, триллер, драма, криминал
Режиссер: Тодд Барту
В ролях: Джэми Бернадетт, Эрик Од, Дэвид Кэри Фостер, Дэниэл Гарднер, Дион Баско, Каспер Андреас, Катарина Уотерс, Эрин О Брайэн и другие
О фильме:
Джоан работает на местного мафиози, который известен своей безжалостностью и диким нравом. После того, как на ее жизнь покушаются ее же коллеги, героиня решает разобраться с обидчиками. Девушка пойдет на всё, чтобы отомстить и устроить настоящую кровавую бойню.

Страна: США, TODFILM
Продолжительность: 01:41:51
Перевод: Любительский (двухголосый закадровый) | HiWay Grope

Файл
Кодек: XviD
Качество: WEBRip
Видео: 720x400, 23.976 fps, ~1495 kbps, 0.22 bit/pixel
Звук:
Аудио rus: AC3, 48 kHz, 6 ch, 384 Kbps
Субтитры: отсутствуют

Реклама: присутствует

Семпл

ВНИМАНИЕ! Присутствует ненормативная лексика

Релиз от: HiWay Grope


[+] MediaInfo:

General
Complete name                            : E:Killing.Joan.2018.WEBRip.HiWayGropeKilling.Joan.2018.WEBRip.HiWayGrope.avi
Format                                   : AVI
Format/Info                              : Audio Video Interleave
File size                                : 1.34 GiB
Duration                                 : 1h 41mn
Overall bit rate                         : 1 889 Kbps
Writing application                      : VirtualDubMod 1.5.10.3 (build 2550/release)
Writing library                          : VirtualDubMod build 2550/release

Video
ID                                       : 0
Format                                   : MPEG-4 Visual
Format profile                           : Advanced Simple@L5
Format settings, BVOP                    : 1
Format settings, QPel                    : No
Format settings, GMC                     : No warppoints
Format settings, Matrix                  : Default (MPEG)
Codec ID                                 : XVID
Codec ID/Hint                            : XviD
Duration                                 : 1h 41mn
Bit rate                                 : 1 496 Kbps
Width                                    : 720 pixels
Height                                   : 400 pixels
Display aspect ratio                     : 16:9
Frame rate                               : 23.976 (23976/1000) fps
Color space                              : YUV
Chroma subsampling                       : 4:2:0
Bit depth                                : 8 bits
Scan type                                : Progressive
Compression mode                         : Lossy
Bits/(Pixel*Frame)                       : 0.217
Stream size                              : 1.06 GiB (79%)
Writing library                          : XviD 73

Audio
ID                                       : 1
Format                                   : AC-3
Format/Info                              : Audio Coding 3
Mode extension                           : CM (complete main)
Format settings, Endianness              : Big
Codec ID                                 : 2000
Duration                                 : 1h 41mn
Bit rate mode                            : Constant
Bit rate                                 : 384 Kbps
Channel(s)                               : 6 channels
Channel positions                        : Front: L C R, Side: L R, LFE
Sampling rate                            : 48.0 KHz
Frame rate                               : 31.250 fps (1536 spf)
Compression mode                         : Lossy
Stream size                              : 280 MiB (20%)
Alignment                                : Split accross interleaves
Interleave, duration                     : 42 ms (1.00 video frame)
Interleave, preload duration             : 500 ms




Скриншоты:
[+] Всего файлов в раздаче - 1:
Killing.Joan.2018.WEBRip.HiWayGrope.avi1.34 GB

Текущая раздача:
ДатаКомментарии    РазмерПиры
2018-04-15 U Убийство Джоан / Killing Joan (2018) WEBRip | L2 1.34 GB ↑ 103 ↓ 58

Показать еще раздачи по запросу убийство:
2018-09-15 U Чисто английское убийство: кто на самом деле отравил Скрипаля? (2018) SATRip 647.82 MB ↑ 38 ↓ 8
2018-08-31 U Убийство в Альпийском предгорье / Crime dans les Alpilles (2017) HDTVRip | GreenРай Studio 1.37 GB ↑ 81 ↓ 15
2018-07-31 U Третье убийство / Sandome no satsujin (2017) HDRip от Scarabey | iTunes 1.39 GB ↑ 19 ↓ 9
2018-07-29 U Третье убийство / Sandome no satsujin (2017) BDRip от MegaPeer | iTunes 2.13 GB ↑ 33 ↓ 10
2018-07-28 U Третье убийство / Sandome no satsujin (2017) BDRip от MegaPeer | iTunes 1.46 GB ↑ 96 ↓ 9
2018-07-11 U Третье убийство / Sandome no satsujin (2017) WEB-DLRip-AVC от KinoHitHD | iTunes 1.98 GB ↑ 246 ↓ 18
2018-07-11 U Третье убийство / Sandome no satsujin (2017) HDRip-AVC от OlLanDGroup | iTunes 1.08 GB ↑ 18 ↓ 13

Отзывы
Зарегистрируйтесь чтобы добавить комментарий.
Обратная связь
Copyleft ©