↑↓Torrent.by
Поиск
Логин: Регистрация
Пароль: Восстановить пароль
Загрузка...

Девушка в тумане / La ragazza nella nebbia (2017) BDRip-AVC от ExKinoRay | iTunes

Скачать devushka-v-tumane-la-ragazza-nella-nebbia-2017-bdrip-avc-ot-exkinoray-itunes.torrent
U Магнитная ссылка Размер: 746.04 MB Раздают: 84 Качают: 34 Добавлен: 2018-04-15 19:39:54
Девушка в тумане / La ragazza nella nebbia (2017) BDRip-AVC от ExKinoRay | iTunes

Название: Девушка в тумане
Оригинальное название: La ragazza nella nebbia
Год выхода: 2017
Жанр:  Триллер, криминал
Режиссер: Донато Карризи
В ролях: Тони Сервилло, Жан Рено, Алессио Бони, Лоренцо Рикельми, Галатеа Ранци, Микела Ческон, Лукреция Гидоне, Даниэла Пьяцца, Якопо Ольмо Антинори, Марина Оккьонеро

О фильме :
Холодной зимней ночью психиатра Аугусто Флореса срочно вызывают на работу, чтобы обследовать попавшего в аварию инспектора Фогеля. Инспектор ничего не помнит, на месте аварии ничто не указывает на ее причину и на ее жертв, однако рубашка Фогеля в пятнах свежей крови, и эта кровь не его. В ходе беседы начинает восстанавливаться цепь невероятных событий, начавшихся месяц назад...

Страна: Италия, Германия, Франция
Студия: Colorado Film Production
Продолжительность: 02:08:18
Перевод: Дублированный | iTunes

Файл
Формат: MKV
Качество: BDRip-AVC (BDRemux 1080p)
Видео: MPEG-4 AVC, 752x316, ~ 736 Кбит/с
Аудио:  AAC-HE, 2 ch, ~ 76 Кбит/с
Субтитры: Русские, английские

Релиз:


[+] MI
Общее
Уникальный идентификатор : 207572556100800180420359851517807534507 (0x9C29052813519851BF4CA0586B5DA1AB)
Полное имя : D:MOVIESLa ragazza nella nebbia.2017.ExKinoRay.mkv
Формат : Matroska
Версия формата : Version 4 / Version 2
Размер файла : 746 Мбайт
Продолжительность : 2 ч. 8 м.
Общий поток : 813 Кбит/сек
Дата кодирования : UTC 2018-04-15 11:51:20
Программа кодирования : mkvmerge v15.0.0 ('Duel with the Devil') 64-bit
Библиотека кодирования : libebml v1.3.5 + libmatroska v1.4.5

Видео
Идентификатор : 1
Формат : AVC
Формат/Информация : Advanced Video Codec
Профиль формата : High@L4.1
Параметр CABAC формата : Да
Параметр RefFrames формата : 10 кадров
Идентификатор кодека : V_MPEG4/ISO/AVC
Продолжительность : 2 ч. 8 м.
Битрейт : 736 Кбит/сек
Ширина : 752 пикселя
Высота : 316 пикселей
Соотношение сторон : 2,40:1
Режим частоты кадров : Постоянный
Частота кадров : 24,000 кадра/сек
Цветовое пространство : YUV
Субдискретизация насыщенности : 4:2:0
Битовая глубина : 8 бит
Тип развёртки : Прогрессивная
Бит/(Пиксели*Кадры) : 0.129
Размер потока : 674 Мбайт (90%)
Библиотека кодирования : x264 core 152 r2851 ba24899
Настройки программы : cabac=1 / ref=10 / deblock=1:-2:-2 / analyse=0x3:0x133 / me=umh / subme=11 / psy=1 / psy_rd=1.00:0.06 / mixed_ref=1 / me_range=32 / chroma_me=1 / trellis=2 / 8x8dct=1 / cqm=0 / deadzone=21,11 / fast_pskip=0 / chroma_qp_offset=-3 / threads=6 / lookahead_threads=1 / sliced_threads=0 / nr=0 / decimate=0 / interlaced=0 / bluray_compat=0 / constrained_intra=0 / bframes=10 / b_pyramid=2 / b_adapt=2 / b_bias=0 / direct=3 / weightb=1 / open_gop=0 / weightp=2 / keyint=240 / keyint_min=23 / scenecut=40 / intra_refresh=0 / rc_lookahead=40 / rc=2pass / mbtree=0 / bitrate=736 / ratetol=1.0 / qcomp=0.60 / qpmin=0 / qpmax=69 / qpstep=4 / cplxblur=20.0 / qblur=0.5 / vbv_maxrate=50000 / vbv_bufsize=62500 / nal_hrd=none / filler=0 / ip_ratio=1.40 / pb_ratio=1.30 / aq=1:1.00
Default : Да
Forced : Нет

Аудио
Идентификатор : 2
Формат : AAC
Формат/Информация : Advanced Audio Codec
Профиль формата : HE-AAC / LC
Идентификатор кодека : A_AAC
Продолжительность : 2 ч. 8 м.
Битрейт : 76,0 Кбит/сек
Каналы : 2 канала
Расположение каналов : Front: L R
Частота : 48,0 КГц / 24,0 КГц
Частота кадров : 23,438 кадра/сек (1024 SPF)
Метод сжатия : С потерями
Задержка видео : 31 мс.
Размер потока : 69,7 Мбайт (9%)
Default : Да
Forced : Нет

Текст #1
Идентификатор : 3
Формат : UTF-8
Идентификатор кодека : S_TEXT/UTF8
Идентификатор кодека/Информация : UTF-8 Plain Text
Продолжительность : 1 ч. 59 м.
Битрейт : 77 бит/сек
ElementCount : 1086
Размер потока : 67,6 Кбайт (0%)
Заголовок : Full
Язык : Russian
Default : Нет
Forced : Нет

Текст #2
Идентификатор : 4
Формат : UTF-8
Идентификатор кодека : S_TEXT/UTF8
Идентификатор кодека/Информация : UTF-8 Plain Text
Продолжительность : 1 ч. 59 м.
Битрейт : 45 бит/сек
ElementCount : 1085
Размер потока : 39,9 Кбайт (0%)
Заголовок : Full
Язык : English
Default : Нет
Forced : Нет

Меню
00:00:00.000 : en:Chapter 01
00:06:17.875 : en:Chapter 02
00:15:48.041 : en:Chapter 03
00:22:44.500 : en:Chapter 04
00:31:22.083 : en:Chapter 05
00:39:51.750 : en:Chapter 06
00:47:44.416 : en:Chapter 07
00:54:36.416 : en:Chapter 08
01:01:11.750 : en:Chapter 09
01:11:32.083 : en:Chapter 10
01:18:15.791 : en:Chapter 11
01:27:31.708 : en:Chapter 12
01:38:13.875 : en:Chapter 13
01:47:45.541 : en:Chapter 14
01:57:28.083 : en:Chapter 15



Скриншоты:
[+] Всего файлов в раздаче - 1:
La ragazza nella nebbia.2017.ExKinoRay.mkv746.04 MB

Текущая раздача:
ДатаКомментарии    РазмерПиры
2018-04-15 U Девушка в тумане / La ragazza nella nebbia (2017) BDRip-AVC от ExKinoRay | iTunes 746.04 MB ↑ 84 ↓ 34

Показать еще раздачи по запросу девушка:
2018-03-21 U StandUp: Уитни Каммингс: Я твоя девушка / Whitney Cummings: I'm Your Girlfriend (2016) WEBRip 720p от AllStandUp | Sub 2.02 GB ↑ 66 ↓ 12
2018-03-16 U Девушка в тумане / La ragazza nella nebbia (2017) BDRip 1080p | iTunes 7.53 GB ↑ 97 ↓ 34
2018-03-13 U Девушка в тумане / La ragazza nella nebbia (2017) BDRip от ExKinoRay | iTunes 2.13 GB ↑ 118 ↓ 47
2018-03-12 U Девушка в тумане / La ragazza nella nebbia (2017) BDRip от ExKinoRay | iTunes 1.46 GB ↑ 96 ↓ 43
2018-03-12 U Девушка в тумане / La ragazza nella nebbia (2017) BDRip 720p от HELLYWOOD | iTunes 4.31 GB ↑ 176 ↓ 81
2018-03-11 U Девушка в тумане / La ragazza nella nebbia (2017) BDRemux 1080p | iTunes 25.78 GB ↑ 109 ↓ 139
2018-03-11 U Девушка в тумане / La ragazza nella nebbia (2017) BDRip от MegaPeer | iTunes 2.13 GB ↑ 154 ↓ 51

Отзывы
Зарегистрируйтесь чтобы добавить комментарий.
Обратная связь
Copyleft ©