↑↓Torrent.by
Поиск
Логин: Регистрация
Пароль: Восстановить пароль
Загрузка...

Детский сад / Kindergarten (1989) VHSRip | A

Скачать detskiy-sad-kindergarten-1989-vhsrip-a.torrent
U Магнитная ссылка Размер: 1.39 GB Раздают: 93 Качают: 33 Добавлен: 2018-04-15 19:40:31
Детский сад / Kindergarten (1989) VHSRip | A

Название: Детский сад
Оригинальное название: Kindergarten
Год выхода: 1989
Жанр: драма, мелодрама, артхаус
Режиссер: Хорхе Полако
В ролях: Грасиэла Борхес, Артуро Пуиг, Эльвира Ромей, Лусиано Сангинери, Сесилия Эчегарай, Алехандро Урдапильета, Эйтель Бьянко, Марго Морейра, Элеонора Барланте

О фильме:
Абсолютно безбашенный аргентинский фильм в лучших традициях укуренного артхауса, сразу после выхода был запрещён и не показывался в течение 20 лет. Содержательная часть совершенно не отражает настоящего шока от просмотра этого киночуда. Богатое и безумное семейство аристократов устроили в своём поместье что то типа детского сада или пансионата, все обитатели ведут себя как минимум странно, творят разные странные и малопонятные вещи, проводят время за пьянками-гулянками со всеми вытекающими последствиями, порой весьма шокирующими... Весь фильм они как могут сходят с ума и всё это под нескончаемую симфоническую музыку и русские романсы. В общем, получился форменный дурдом. Слабонервным и морально неустойчивым просмотр этого скандального шедевра настоятельно не рекомендован.

Производство: Аргентина / Argentina Sono Film S.A.C.I.
Продолжительность: 01:18:34
Перевод: авторский одноголосый [Антон Алексеев]

Файл
Качество: VHSRip
Формат: AVI
Видео: XviD, 704x528 (4:3), 25.000 fps, 2129 kbps, 0.229 bit/pixel
Аудио #1: русский, MP3 2.0, 48 kHz, 128 kbps
Аудио #2: испанский, MP3 mono, 44.1 kHz, 256 kbps


[+] MediaInfo
Формат                                   : AVI
Формат/Информация                        : Audio Video Interleave
Размер файла                             : 1,39 Гбайт
Продолжительность                        : 1 ч. 18 м.
Режим общего битрейта                    : Переменный
Общий поток                              : 2528 Кбит/сек
Программа кодирования                    : VirtualDubMod 1.5.10.2 (build 2540/release)
Библиотека кодирования                   : VirtualDubMod build 2540/release

Видео
Идентификатор                            : 0
Формат                                   : MPEG-4 Visual
Профиль формата                          : Advanced Simple@L5
Параметр BVOP формата                    : 2
Параметр QPel формата                    : Да
Параметр GMC формата                     : 3 точки перехода
Параметр матрицы формата                 : Default (MPEG)
Идентификатор кодека                     : XVID
Идентификатор кодека/Подсказка           : XviD
Продолжительность                        : 1 ч. 18 м.
Битрейт                                  : 2129 Кбит/сек
Ширина                                   : 704 пикселя
Высота                                   : 528 пикселей
Соотношение сторон                       : 4:3
Частота кадров                           : 25,000 кадров/сек
Цветовое пространство                    : YUV
Субдискретизация насыщенности            : 4:2:0
Битовая глубина                          : 8 бит
Тип развёртки                            : Прогрессивная
Метод сжатия                             : С потерями
Бит/(Пиксели*Кадры)                      : 0.229
Размер потока                            : 1,17 Гбайт (84%)
Библиотека кодирования                   : XviD 1.0.3 (UTC 2004-12-20)

Аудио #1
Идентификатор                            : 1
Формат                                   : MPEG Audio
Версия формата                           : Version 1
Профиль формата                          : Layer 3
Режим                                    : Joint stereo
Расширение режима                        : MS Stereo
Идентификатор кодека                     : 55
Идентификатор кодека/Подсказка           : MP3
Продолжительность                        : 1 ч. 18 м.
Вид битрейта                             : Постоянный
Битрейт                                  : 128 Кбит/сек
Каналы                                   : 2 канала
Частота                                  : 48,0 КГц
Метод сжатия                             : С потерями
Размер потока                            : 71,9 Мбайт (5%)
Выравнивание                             : Соединение по промежуткам
Продолжительность промежутка             : 40  мс. (1,00 видеокадр)
Время предзагрузки промежутка            : 504  мс.

Аудио #2
Идентификатор                            : 2
Формат                                   : MPEG Audio
Версия формата                           : Version 1
Профиль формата                          : Layer 3
Идентификатор кодека                     : 55
Идентификатор кодека/Подсказка           : MP3
Продолжительность                        : 1 ч. 18 м.
Продолжительность оригинала              : 1 ч. 18 м.
Вид битрейта                             : Переменный
Битрейт                                  : 256 Кбит/сек
Каналы                                   : 1 канал
Частота                                  : 44,1 КГц
Метод сжатия                             : С потерями
Размер потока                            : 144 Мбайт (10%)
Выравнивание                             : Разделение по промежуткам
Продолжительность промежутка             : 40  мс. (1,00 видеокадр)
Время предзагрузки промежутка            : 500  мс.
Библиотека кодирования                   : LAME3.92
Настройки программы                      : -m m -V 1 -q 2 -lowpass 19.5 --abr



Скриншоты:
[+] Всего файлов в раздаче - 1:
Kindergarten.1989.VHSRip.avi1.39 GB

Текущая раздача:
ДатаКомментарии    РазмерПиры
2018-04-15 U Детский сад / Kindergarten (1989) VHSRip | A 1.39 GB ↑ 93 ↓ 33

Похожие раздачи по запросу - детский:
2017-09-11 U Сборник - Детский сад. Штаны на лямках (2002) MP3 132.50 MB ↑ 39 ↓ 5
2013-12-05 U Детский сад (1983) SATRip 1.45 GB ↑ 26 ↓ 21
2013-10-11 U ХХХL Детский - 60 лучших детских клипов (2006) DVDRip 5К1.26 GB ↑ 1091 ↓ 78
2013-10-01 U Чич и Чонг: Не детский мульт / Укуренные / Cheech & Chong's Animated Movie (2013) HDRip 5К1.37 GB ↑ 28 ↓ 17

Отзывы
Зарегистрируйтесь чтобы добавить комментарий.
Обратная связь
Copyleft ©