↑↓Torrent.by
Поиск
Логин: Регистрация
Пароль: Восстановить пароль
Загрузка...

Аутсайдер / The Outsider (2018) WEBRip 1080p | NewStudio

Скачать autsayder-the-outsider-2018-webrip-1080p-newstudio.torrent
U Магнитная ссылка Размер: 2.75 GB Раздают: 92 Качают: 28 Добавлен: 2018-04-16 05:10:48
Аутсайдер / The Outsider (2018) WEBRip 1080p | NewStudio

Название: Аутсайдер
Оригинальное название: The Outsider
Год выхода: 2018
Жанр:  Триллер, драма, криминал, детектив
Режиссер: Мартин Зандвлиет
В ролях: Джаред Лето, Таданобу Асано, Киппэй Сина, Рори Кокрейн, Эмиль Хирш, Сиори Куцуна, Юрино, Нозоми де Ланкесэ, Кодзи Като, Сотаро Ясуда

О фильме:
Япония после Второй мировой войны. Американского военнопленного освобождают благодаря помощи сокамерника, принадлежащего к якудза. Став свободным, солдат начинает завоевывать их уважение и возвращает свой долг в опасном криминальном мире.

Страна: США
Студия: Linson Entertainment
Продолжительность: 02:00:58
Перевод: Профессиональный (многоголосый, закадровый) "NewStudio"
Субтитры: Русские

Файл
Кодек: AVC
Качество: WEBRip 1080p
Видео: AVC, 1920x1080 (16:9), ~2490 kbps
Аудио 1: AC3, 48,0 kHz, 6 ch, 384 kbps - русский, многоголосый, закадровый
Аудио 2: AC3, 48,0 kHz, 6 ch, 384 kbps - английский

Перевод: Григорий Сенин
Постер: Vortex
Удаление рекламы: messer20080


[+] M/I
Общее
Уникальный идентификатор                 : 233347803133382986112159820144467226803 (0xAF8D26F360CF0C90E3E7E26750EBB0B3)
Полное имя                               : F:TorrentsThe.Outsider.2018.WEBDL.1080p.NewStudio.TV.mkv
Формат                                   : Matroska
Версия формата                           : Version 4 / Version 2
Размер файла                             : 2,75 Гбайт
Продолжительность                        : 2 ч. 0 м.
Режим общего битрейта                    : Переменный
Общий поток                              : 3253 Кбит/сек
Дата кодирования                         : UTC 2018-03-18 11:01:21
Программа кодирования                    : mkvmerge v21.0.0 ('Tardigrades Will Inherit The Earth') 64-bit
Библиотека кодирования                   : libebml v1.3.5 + libmatroska v1.4.8

Видео
Идентификатор                            : 2
Формат                                   : AVC
Формат/Информация                        : Advanced Video Codec
Профиль формата                          : Main@L4
Настройки формата                        : CABAC / 3 Ref Frames
Параметр CABAC формата                   : Да
Параметр RefFrames формата               : 3 кадра
Идентификатор кодека                     : V_MPEG4/ISO/AVC
Продолжительность                        : 2 ч. 0 м.
Вид битрейта                             : Переменный
Битрейт                                  : 2490 Кбит/сек
Максимальный битрейт                     : 3735 Кбит/сек
Ширина                                   : 1920 пикселей
Высота                                   : 1080 пикселей
Соотношение сторон                       : 16:9
Режим частоты кадров                     : Постоянный
Частота кадров                           : 24,000 кадра/сек
Цветовое пространство                    : YUV
Субдискретизация насыщенности            : 4:2:0
Битовая глубина                          : 8 бит
Тип развёртки                            : Прогрессивная
Бит/(Пиксели*Кадры)                      : 0.050
Размер потока                            : 2,10 Гбайт (76%)
Библиотека кодирования                   : x264 core 148
Настройки программы                      : cabac=1 / ref=3 / deblock=1:0:0 / analyse=0x1:0x111 / me=umh / subme=10 / psy=1 / psy_rd=1.00:0.00 / mixed_ref=1 / me_range=24 / chroma_me=1 / trellis=2 / 8x8dct=0 / cqm=0 / deadzone=21,11 / fast_pskip=1 / chroma_qp_offset=-2 / threads=8 / lookahead_threads=1 / sliced_threads=0 / nr=0 / decimate=1 / interlaced=0 / bluray_compat=0 / stitchable=1 / constrained_intra=0 / bframes=2 / b_pyramid=0 / b_adapt=2 / b_bias=0 / direct=3 / weightb=1 / open_gop=0 / weightp=2 / keyint=48 / keyint_min=25 / scenecut=0 / intra_refresh=0 / rc_lookahead=48 / rc=2pass / mbtree=1 / bitrate=2490 / ratetol=1.0 / qcomp=0.50 / qpmin=6 / qpmax=51 / qpstep=4 / cplxblur=20.0 / qblur=0.5 / vbv_maxrate=3735 / vbv_bufsize=4980 / nal_hrd=vbr / filler=0 / ip_ratio=1.40 / aq=1:1.00
Default                                  : Да
Forced                                   : Нет

Аудио #1
Идентификатор                            : 1
Формат                                   : AC-3
Формат/Информация                        : Audio Coding 3
Идентификатор кодека                     : A_AC3
Продолжительность                        : 2 ч. 0 м.
Вид битрейта                             : Постоянный
Битрейт                                  : 384 Кбит/сек
Каналы                                   : 6 каналов
Расположение каналов                     : Front: L C R, Side: L R, LFE
Частота                                  : 48,0 КГц
Частота кадров                           : 31,250 кадров/сек (1536 SPF)
Битовая глубина                          : 16 бит
Метод сжатия                             : С потерями
Размер потока                            : 332 Мбайт (12%)
Язык                                     : Russian
ServiceKind                       : Complete Main
Default                                  : Да
Forced                                   : Нет

Аудио #2
Идентификатор                            : 3
Формат                                   : AC-3
Формат/Информация                        : Audio Coding 3
Идентификатор кодека                     : A_AC3
Продолжительность                        : 2 ч. 0 м.
Вид битрейта                             : Постоянный
Битрейт                                  : 384 Кбит/сек
Каналы                                   : 6 каналов
Расположение каналов                     : Front: L C R, Side: L R, LFE
Частота                                  : 48,0 КГц
Частота кадров                           : 31,250 кадров/сек (1536 SPF)
Битовая глубина                          : 16 бит
Метод сжатия                             : С потерями
Размер потока                            : 332 Мбайт (12%)
Язык                                     : English
ServiceKind                       : Complete Main
Default                                  : Нет
Forced                                   : Нет

Текст
Идентификатор                            : 4
Формат                                   : UTF-8
Идентификатор кодека                     : S_TEXT/UTF8
Идентификатор кодека/Информация          : UTF-8 Plain Text
Продолжительность                        : 1 ч. 50 м.
Битрейт                                  : 22 бит/сек
ElementCount                             : 463
Размер потока                            : 18,0 Кбайт (0%)
Язык                                     : Russian
Default                                  : Да
Forced                                   : Нет



Скриншоты:
[+] Всего файлов в раздаче - 1:
The.Outsider.2018.WEBDL.1080p.NewStudio.TV.mkv2.75 GB

Текущая раздача:
ДатаКомментарии    РазмерПиры
2018-04-16 U Аутсайдер / The Outsider (2018) WEBRip 1080p | NewStudio 2.75 GB ↑ 92 ↓ 28

Показать еще раздачи по запросу аутсайдер:
2018-06-10 U Аутсайдер / The Outsider (2018) WEBRip 720p | Jaskier 1.47 GB ↑ 50 ↓ 13
2018-06-10 U Аутсайдер / The Outsider (2018) WEBRip | Jaskier 1.43 GB ↑ 65 ↓ 25
2018-03-20 U Аутсайдер / The Outsider (2018) WEBRip от Portablius | NewStudio 695.50 MB ↑ 138 ↓ 18
2018-03-20 U Аутсайдер / The Outsider (2018) WEBRip от Scarabey | NewStudio 1.44 GB ↑ 218 ↓ 34
2018-03-18 U Аутсайдер / The Outsider (2018) WEBRip | NewStudio 1.37 GB ↑ 181 ↓ 87
2018-03-18 U Аутсайдер / The Outsider (2018) WEBRip 720p | NewStudio 1К2.86 GB ↑ 225 ↓ 215
2018-03-15 U Аутсайдер / The Outsider (2018) WEBRip-AVC от ExKinoRay | L2 744.66 MB ↑ 126 ↓ 7

Отзывы
Зарегистрируйтесь чтобы добавить комментарий.
Обратная связь
Copyleft ©