↑↓Torrent.by
Поиск
Логин: Регистрация
Пароль: Восстановить пароль
Загрузка...

Убийство Джоан / Killing Joan (2018) WEBRip 720p | L2

Скачать ubiystvo-dzhoan-killing-joan-2018-webrip-720p-l2.torrent
U Магнитная ссылка Размер: 3.07 GB Раздают: 35 Качают: 12 Добавлен: 2018-04-16 05:11:19
Убийство Джоан / Killing Joan (2018) WEBRip 720p | L2

Название: Убийство Джоан
Оригинальное название: Killing Joan
Год выхода: 2018
Жанр: Ужасы, боевик, триллер, драма, криминал
Режиссер: Тодд Барту
В ролях: Джэми Бернадетт, Эрик Од, Дэвид Кэри Фостер, Дэниэл Гарднер, Дион Баско, Каспер Андреас, Катарина Уотерс, Эрин О Брайэн и другие
О фильме:
Джоан работает на местного мафиози, который известен своей безжалостностью и диким нравом. После того, как на ее жизнь покушаются ее же коллеги, героиня решает разобраться с обидчиками. Девушка пойдет на всё, чтобы отомстить и устроить настоящую кровавую бойню.

Страна: США, TODFILM
Продолжительность: 01:41:51
Перевод: Любительский (двухголосый закадровый) | HiWay Grope

Файл
Кодек: MPEG-4 AVC/x.264
Качество: WEBRip 720p
Видео: 1280x720, 23.976 fps, ~3846 kbps, 0.174 bit/pixel
Звук:
Аудио rus: AC3, 48 kHz, 6 ch, 384 Kbps
Субтитры: отсутствуют

Реклама: присутствует

Семпл

ВНИМАНИЕ! Присутствует ненормативная лексика

Релиз от: HiWay Grope


[+] MediaInfo:

General
Unique ID                                : 30104378261755797157876055252854748211 (0x16A5E471630F35F71064778D0179B433)
Complete name                            : E:Killing.Joan.2018.720p.WEBRip.HiWayGropeKilling.Joan.2018.720p.WEBRip.HiWayGrope.mkv
Format                                   : Matroska
Format version                           : Version 4 / Version 2
File size                                : 3.07 GiB
Duration                                 : 1h 41mn
Overall bit rate                         : 4 316 Kbps
Encoded date                             : UTC 2018-04-15 12:24:21
Writing application                      : mkvmerge v21.0.0 ('Tardigrades Will Inherit The Earth') 64-bit
Writing library                          : libebml v1.3.5 + libmatroska v1.4.8

Video
ID                                       : 1
Format                                   : AVC
Format/Info                              : Advanced Video Codec
Format profile                           : Main@L4.1
Format settings, CABAC                   : Yes
Format settings, ReFrames                : 4 frames
Codec ID                                 : V_MPEG4/ISO/AVC
Duration                                 : 1h 41mn
Bit rate                                 : 3 846 Kbps
Width                                    : 1 280 pixels
Height                                   : 720 pixels
Display aspect ratio                     : 16:9
Frame rate mode                          : Constant
Frame rate                               : 23.976 (24000/1001) fps
Standard                                 : NTSC
Color space                              : YUV
Chroma subsampling                       : 4:2:0
Bit depth                                : 8 bits
Scan type                                : Progressive
Bits/(Pixel*Frame)                       : 0.174
Stream size                              : 2.74 GiB (89%)
Language                                 : English
Default                                  : Yes
Forced                                   : No
Color range                              : Limited
Color primaries                          : BT.709
Transfer characteristics                 : BT.709
Matrix coefficients                      : BT.709

Audio
ID                                       : 2
Format                                   : AC-3
Format/Info                              : Audio Coding 3
Mode extension                           : CM (complete main)
Format settings, Endianness              : Big
Codec ID                                 : A_AC3
Duration                                 : 1h 41mn
Bit rate mode                            : Constant
Bit rate                                 : 384 Kbps
Channel(s)                               : 6 channels
Channel positions                        : Front: L C R, Side: L R, LFE
Sampling rate                            : 48.0 KHz
Frame rate                               : 31.250 fps (1536 spf)
Compression mode                         : Lossy
Stream size                              : 280 MiB (9%)
Title                                    : rus
Language                                 : Russian
Default                                  : Yes
Forced                                   : No




Скриншоты:
[+] Всего файлов в раздаче - 1:
Killing.Joan.2018.720p.WEBRip.HiWayGrope.mkv3.07 GB

Текущая раздача:
ДатаКомментарии    РазмерПиры
2018-04-16 U Убийство Джоан / Killing Joan (2018) WEBRip 720p | L2 3.07 GB ↑ 35 ↓ 12

Показать еще раздачи по запросу убийство:
2018-07-11 U Третье убийство / Sandome no satsujin (2017) WEB-DLRip-AVC от KinoHitHD | iTunes 1.98 GB ↑ 80 ↓ 17
2018-07-11 U Третье убийство / Sandome no satsujin (2017) HDRip-AVC от OlLanDGroup | iTunes 1.08 GB ↑ 18 ↓ 11
2018-07-11 U Третье убийство / Sandome no satsujin (2017) BDRip 1080p | iTunes 9.33 GB ↑ 52 ↓ 38
2018-07-11 U Третье убийство / Sandome no satsujin (2017) HDRip от MegaPeer | iTunes 1.46 GB ↑ 85 ↓ 38
2018-07-10 U Третье убийство / Sandome no satsujin (2017) WEB-DL 1080p | P 4.78 GB ↑ 53 ↓ 33
2018-05-17 U Третье убийство / Sandome no satsujin (2017) HDRip | GreenРай Studio 1.37 GB ↑ 172 ↓ 38
2018-04-15 U Убийство Джоан / Killing Joan (2018) WEBRip | L2 1.34 GB ↑ 103 ↓ 58

Отзывы
Зарегистрируйтесь чтобы добавить комментарий.
Обратная связь
Copyleft ©