↑↓Torrent.by
Поиск
Логин: Регистрация
Пароль: Восстановить пароль
Загрузка...

На грани безумия / Spinning Man (2018) WEB-DLRip-AVC от New-Team | HiWay Grope

Скачать na-grani-bezumiya-spinning-man-2018-web-dlrip-avc-ot-new-team-hiway-grope.torrent
U Магнитная ссылка Размер: 1.50 GB Раздают: 27 Качают: 8 Добавлен: 2018-04-16 05:18:12
На грани безумия / Spinning Man (2018) WEB-DLRip-AVC от New-Team | HiWay Grope

На грани безумия
Spinning Man

«What You Believe. What You Know. Is All How You Spin It»

Страна: Ирландия, Швеция, США
Жанр:  триллер, драма, детектив
Год выпуска: 2018
Продолжительность: 01:40:35

Перевод: Любительский (двухголосый, закадровый) [HiWay Grope]
Субтитры: нет
Оригинальная аудиодорожка: нет

Режиссер: Симон Кайзер / Simon Kaijser

В ролях: Одейя Раш, Александра Шипп, Пирс Броснан, Минни Драйвер, Гай Пирс, Кларк Грегг, Фрея Тингли, Джейми Кеннеди, Стерлинг Бомон, АрДжей Уокер, Карло Рота, Энни Монро

Описание:
Респектабельная жизнь профессора философии Эвана Берча начинает рушиться по мере того, как появляются подробности о его неподобающем поведении со студентками. В довершении ко всему герой становится центральным подозреваемым в деле об убийстве одной из слушательниц его курса.

Релиз:

Автор рипа: stalkerok
Удаление рекламы: stalkerok

Семпл

Качество видео: WEB-DLRip-AVC [Исходник: Spinning.Man.2018.1080p.AMZN.WEB-DL.DDP5.1.H.264-NTG]
Формат видео: MKV
Видео кодек: AVC
Аудио кодек: AC3
Видео: AVC, 1748 Кбит/сек, 1078x448 (2.40:1), 23,976 кадр/сек
Аудио: AC3, 384 Кбит/сек, 48 КГц, 5.1 - русский


[+] x264/MediaInfo


---[Information] [15.04.2018 19:01:51] x264 [info]: frame I:1083  Avg QP:15.39  size: 62598
---[Information] [15.04.2018 19:01:51] x264 [info]: frame P:31861 Avg QP:16.99  size: 19761
---[Information] [15.04.2018 19:01:51] x264 [info]: frame B:111764 Avg QP:18.81  size:  5565

General
Unique ID                                : 207496145991825868186009493695366701507 (0x9C1A4DD8E966FAD493CB4475DA1821C3)
Complete name                            : V:!RipsSpinning Man (2018)Spinning.Man.2018.WEB-DLRip-AVC.Rus.stalkerok.new-team.mkv
Format                                   : Matroska
Format version                           : Version 4 / Version 2
File size                                : 1.50 GiB
Duration                                 : 1 h 40 min
Overall bit rate                         : 2 135 kb/s
Movie name                               : Spinning Man (2018) (Rip by stalkerok)
Encoded date                             : UTC 2018-04-15 16:04:58
Writing application                      : mkvmerge v8.6.1 ('Flying') 64bit
Writing library                          : libebml v1.3.3 + libmatroska v1.4.4

Video
ID                                       : 1
Format                                   : AVC
Format/Info                              : Advanced Video Codec
Format profile                           : High@L4.1
Format settings, CABAC                   : Yes
Format settings, ReFrames                : 14 frames
Codec ID                                 : V_MPEG4/ISO/AVC
Duration                                 : 1 h 40 min
Bit rate                                 : 1 749 kb/s
Width                                    : 1 078 pixels
Height                                   : 448 pixels
Display aspect ratio                     : 2.40:1
Frame rate mode                          : Constant
Frame rate                               : 23.976 (24000/1001) FPS
Color space                              : YUV
Chroma subsampling                       : 4:2:0
Bit depth                                : 8 bits
Scan type                                : Progressive
Bits/(Pixel*Frame)                       : 0.151
Stream size                              : 1.23 GiB (82%)
Title                                    : Spinning Man (2018) (Rip by stalkerok)
Writing library                          : x264 core 155 r2901 7d0ff22
Encoding settings                        : cabac=1 / ref=14 / deblock=1:-3:-2 / analyse=0x3:0x133 / me=umh / subme=11 / psy=1 / psy_rd=1.00:0.00 / mixed_ref=1 / me_range=32 / chroma_me=1 / trellis=2 / 8x8dct=1 / cqm=0 / deadzone=21,11 / fast_pskip=0 / chroma_qp_offset=-2 / threads=12 / lookahead_threads=3 / sliced_threads=0 / nr=0 / decimate=1 / interlaced=0 / bluray_compat=0 / constrained_intra=0 / bframes=15 / b_pyramid=2 / b_adapt=2 / b_bias=0 / direct=3 / weightb=1 / open_gop=0 / weightp=2 / keyint=240 / keyint_min=23 / scenecut=40 / intra_refresh=0 / rc_lookahead=60 / rc=crf / mbtree=0 / crf=18.4 / qcomp=0.65 / qpmin=0 / qpmax=69 / qpstep=4 / vbv_maxrate=50000 / vbv_bufsize=62500 / crf_max=0.0 / nal_hrd=none / filler=0 / ip_ratio=1.40 / pb_ratio=1.30 / aq=3:0.80 / zones=140410,144707,q=34
Default                                  : Yes
Forced                                   : No

Audio
ID                                       : 2
Format                                   : AC-3
Format/Info                              : Audio Coding 3
Mode extension                           : CM (complete main)
Format settings, Endianness              : Big
Codec ID                                 : A_AC3
Duration                                 : 1 h 40 min
Bit rate mode                            : Constant
Bit rate                                 : 384 kb/s
Channel(s)                               : 6 channels
Channel positions                        : Front: L C R, Side: L R, LFE
Sampling rate                            : 48.0 kHz
Frame rate                               : 31.250 FPS (1536 spf)
Compression mode                         : Lossy
Stream size                              : 276 MiB (18%)
Title                                    : HiWay Grope
Language                                 : Russian
Default                                  : Yes
Forced                                   : No




Скриншоты:
[+] Всего файлов в раздаче - 1:
Spinning.Man.2018.WEB-DLRip-AVC.Rus.stalkerok.new-team.mkv1.50 GB

Текущая раздача:
ДатаКомментарии    РазмерПиры
2018-04-16 U На грани безумия / Spinning Man (2018) WEB-DLRip-AVC от New-Team | HiWay Grope 1.50 GB ↑ 27 ↓ 8

Показать еще раздачи по запросу грани:
2018-04-16 U На грани безумия / Spinning Man (2018) WEB-DL 1080p от New-Team | HiWay Grope 6.81 GB ↑ 36 ↓ 37
2018-04-12 U На грани безумия / Spinning Man (2018) WEBRip 720p | L2 1.75 GB ↑ 347 ↓ 151
2018-04-12 U На грани безумия / Spinning Man (2018) WEBRip | L2 1.41 GB ↑ 119 ↓ 88
2017-12-19 U Григорий Шаргородский - Грани страха (2017) MP3 414.55 MB ↑ 65 ↓ 13
2017-05-22 U Фрэнсис Эшкрофт - На грани возможного. Наука выживания (2016) FB2 12.26 MB ↑ 222 ↓ 23
2016-06-13 U На грани добра и зла / Borderline (2014) HDRip | L1 1.46 GB ↑ 349 ↓ 97
2016-06-05 U Планета на грани исчезновения / Mass Extinction: Life on the Brink (2014) HDTVRip 720p | P2 1.40 GB ↑ 169 ↓ 22

Отзывы
Зарегистрируйтесь чтобы добавить комментарий.
Обратная связь
Copyleft ©