↑↓Torrent.by
Поиск
Логин: Регистрация
Пароль: Восстановить пароль
Загрузка...

Проблемы - мой конёк / Trouble Is My Business (2018) WEB-DL 1080p от New-Team | HiWay Grope

Скачать problemy-moy-konek-trouble-is-my-business-2018-web-dl-1080p-ot-new-team-hiway-grope.torrent
U Магнитная ссылка Размер: 4.33 GB Раздают: 77 Качают: 54 Добавлен: 2018-04-16 07:39:15
Проблемы - мой конёк / Trouble Is My Business (2018) WEB-DL 1080p от New-Team | HiWay Grope

Проблемы - мой конёк
Trouble Is My Business

«Trouble is his business, and business is good»

Страна: США
Жанр:  криминал, приключения
Год выпуска: 2018
Продолжительность: 01:52:28
Перевод: Любительский (двухголосый, закадровый) [HiWay Grope]
Субтитры: английские (полные, SDH)
Оригинальная аудиодорожка: английский
Режиссер: Том Конкл / Tom Konkle

В ролях: Вернон Уэллс, Бриттни Пауэлл, Стив Том, Джордана Капра, Стив Олсон, Дуглас Спирман, Бен Паке, Марк Тич, Mollie Fitzgerald, Джо Собало мл., Бентон Дженнингс, Лорен Бернс

Описание:
Лос-Анджелес, 1947-ой год. Частный детектив Роланд Дрэйк расследует дела, пока городом управляют коррумпированные копы. В этой бесконечной борьбе добра и зла он встречает роковую женщину, которая подбрасывает ему новую загадку и сама вскоре становится таковой.

Релиз:

Автор релиза: stalkerok
Удаление рекламы: stalkerok

Семпл

Качество видео: WEB-DL 1080p [Trouble Is My Business 2018 1080p WEB-DL DD5 1 H264-CMRG]
Формат видео: MKV
Видео кодек: AVC
Аудио кодек: AC3
Видео: AVC, 4743 Кбит/сек, 1920*1008 (1,905), в 23,976 кадра/сек
Аудио №1: AC3, 384 Кбит/сек, 48 КГц, 5.1 - русский
Аудио №2: AC3, 384 Кбит/сек, 48 КГц, 5.1 - английский
Навигация по главам: есть


[+] MediaInfo

Общее
Уникальный идентификатор                 : 175274344802814409729757475893695267386 (0x83DC9C64D9C69B2B922838D6F904C23A)
Полное имя                               : V:!RipsTrouble Is My Business (2018)Trouble.Is.My.Business.2018.1080p.WEB-DL.DD5.1.H264-CMRG-stalkerok.new-team.mkv
Формат                                   : Matroska
Версия формата                           : Version 4 / Version 2
Размер файла                             : 4,33 Гбайт
Продолжительность                        : 1 ч. 52 м.
Общий поток                              : 5514 Кбит/сек
Название фильма                          : Trouble Is My Business (2018)
Дата кодирования                         : UTC 2018-04-15 18:13:42
Программа кодирования                    : mkvmerge v8.6.1 ('Flying') 64bit
Библиотека кодирования                   : libebml v1.3.3 + libmatroska v1.4.4

Видео
Идентификатор                            : 1
Формат                                   : AVC
Формат/Информация                        : Advanced Video Codec
Профиль формата                          : High@L4
Параметр CABAC формата                   : Да
Параметр ReFrames формата                : 4 кадра
Идентификатор кодека                     : V_MPEG4/ISO/AVC
Продолжительность                        : 1 ч. 52 м.
Битрейт                                  : 4743 Кбит/сек
Ширина                                   : 1920 пикселей
Высота                                   : 1008 пикселей
Соотношение сторон                       : 1,905
Режим частоты кадров                     : Постоянный
Частота кадров                           : 23,976 (24000/1001) кадра/сек
Цветовое пространство                    : YUV
Субдискретизация насыщенности            : 4:2:0
Битовая глубина                          : 8 бит
Тип развёртки                            : Прогрессивная
Бит/(Пиксели*Кадры)                      : 0.102
Размер потока                            : 3,73 Гбайт (86%)
Заголовок                                : Trouble Is My Business (2018)
Язык                                     : English
Default                                  : Да
Forced                                   : Нет
Цветовой диапазон                        : Limited
Основные цвета                           : BT.709
Характеристики трансфера                 : BT.709
Коэффициенты матрицы                     : BT.709

Аудио #1
Идентификатор                            : 2
Формат                                   : AC-3
Формат/Информация                        : Audio Coding 3
Расширение режима                        : CM (complete main)
Параметр Endianness формата              : Big
Идентификатор кодека                     : A_AC3
Продолжительность                        : 1 ч. 52 м.
Вид битрейта                             : Постоянный
Битрейт                                  : 384 Кбит/сек
Каналы                                   : 6 каналов
Расположение каналов                     : Front: L C R, Side: L R, LFE
Частота                                  : 48,0 КГц
Частота кадров                           : 31,250 кадров/сек (1536 spf)
Метод сжатия                             : С потерями
Размер потока                            : 309 Мбайт (7%)
Заголовок                                : HiWay Grope
Язык                                     : Russian
Default                                  : Да
Forced                                   : Нет

Аудио #2
Идентификатор                            : 3
Формат                                   : AC-3
Формат/Информация                        : Audio Coding 3
Расширение режима                        : CM (complete main)
Параметр Endianness формата              : Big
Идентификатор кодека                     : A_AC3
Продолжительность                        : 1 ч. 52 м.
Вид битрейта                             : Постоянный
Битрейт                                  : 384 Кбит/сек
Каналы                                   : 6 каналов
Расположение каналов                     : Front: L C R, Side: L R, LFE
Частота                                  : 48,0 КГц
Частота кадров                           : 31,250 кадров/сек (1536 spf)
Метод сжатия                             : С потерями
Размер потока                            : 309 Мбайт (7%)
Язык                                     : English
Default                                  : Нет
Forced                                   : Нет

Текст #1
Идентификатор                            : 4
Формат                                   : UTF-8
Идентификатор кодека                     : S_TEXT/UTF8
Идентификатор кодека/Информация          : UTF-8 Plain Text
Продолжительность                        : 1 ч. 43 м.
Битрейт                                  : 63 бит/сек
Count of elements                        : 1642
Размер потока                            : 48,4 Кбайт (0%)
Язык                                     : English
Default                                  : Нет
Forced                                   : Нет

Текст #2
Идентификатор                            : 5
Формат                                   : UTF-8
Идентификатор кодека                     : S_TEXT/UTF8
Идентификатор кодека/Информация          : UTF-8 Plain Text
Продолжительность                        : 1 ч. 49 м.
Битрейт                                  : 66 бит/сек
Count of elements                        : 1957
Размер потока                            : 53,4 Кбайт (0%)
Заголовок                                : SDH
Язык                                     : English
Default                                  : Нет
Forced                                   : Нет

Меню
00:00:00.000                             : en:Chapter One
00:15:00.000                             : en:Chapter Two
00:30:00.000                             : en:Chapter Three
00:45:00.000                             : en:Chapter Four
01:00:00.000                             : en:Chapter Five
01:15:00.000                             : en:Chapter Six
01:30:00.000                             : en:Chapter Seven
01:45:00.000                             : en:Chapter Eight




Скриншоты:
[+] Всего файлов в раздаче - 1:
Trouble.Is.My.Business.2018.1080p.WEB-DL.DD5.1.H264-CMRG-stalkerok.new-team.mkv4.33 GB

Текущая раздача:
ДатаКомментарии    РазмерПиры
2018-04-16 U Проблемы - мой конёк / Trouble Is My Business (2018) WEB-DL 1080p от New-Team | HiWay Grope 4.33 GB ↑ 77 ↓ 54

Похожие раздачи по запросу - проблемы:
2018-07-02 U Брайан Трейси, Кристина Стайн - Поцелуй лягушку! Научись превращать проблемы в возможности (2017) FB2 628.27 kB ↑ 96 ↓ 4
2018-05-29 U Проблемы Серых пришельцев / Gray Matter (2018) WEBRip | L1 1.21 GB ↑ 384 ↓ 92
2018-04-15 U Проблемы - мой конёк / Trouble Is My Business (2018) WEB-DLRip-AVC от New-Team | HiWay Grope 1.46 GB ↑ 125 ↓ 67
2018-04-15 U Проблемы - мой конёк / Trouble Is My Business (2018) WEBRip 720p | L2 2.65 GB ↑ 62 ↓ 27
2018-04-15 U Проблемы - мой конёк / Trouble Is My Business (2018) WEBRip | L2 1.41 GB ↑ 103 ↓ 33

Отзывы
Зарегистрируйтесь чтобы добавить комментарий.
Обратная связь
Copyleft ©