↑↓Torrent.by
Поиск
Логин: Регистрация
Пароль: Восстановить пароль
Загрузка...

На грани безумия / Spinning Man (2018) WEB-DL 1080p от New-Team | HiWay Grope

Скачать na-grani-bezumiya-spinning-man-2018-web-dl-1080p-ot-new-team-hiway-grope.torrent
U Магнитная ссылка Размер: 6.81 GB Раздают: 37 Качают: 37 Добавлен: 2018-04-16 07:39:42
На грани безумия / Spinning Man (2018) WEB-DL 1080p от New-Team | HiWay Grope

На грани безумия
Spinning Man

«What You Believe. What You Know. Is All How You Spin It»

Страна: Ирландия, Швеция, США
Жанр:  триллер, драма, детектив
Год выпуска: 2018
Продолжительность: 01:40:35
Перевод: Любительский (двухголосый, закадровый) [HiWay Grope]
Субтитры: английские (полные, SDH)
Оригинальная аудиодорожка: английский
Режиссер: Симон Кайзер / Simon Kaijser
В ролях: Одейя Раш, Александра Шипп, Пирс Броснан, Минни Драйвер, Гай Пирс, Кларк Грегг, Фрея Тингли, Джейми Кеннеди, Стерлинг Бомон, АрДжей Уокер, Карло Рота, Энни Монро

Описание:
Респектабельная жизнь профессора философии Эвана Берча начинает рушиться по мере того, как появляются подробности о его неподобающем поведении со студентками. В довершении ко всему герой становится центральным подозреваемым в деле об убийстве одной из слушательниц его курса.

Релиз:
Автор релиза: stalkerok
Удаление рекламы: stalkerok

Семпл

Качество видео: WEB-DL 1080p [Spinning.Man.2018.1080p.AMZN.WEB-DL.DDP5.1.H.264-NTG]
Формат видео: MKV
Видео кодек: AVC
Аудио кодек: AC3
Видео: AVC, 8665 Кбит/сек, 1920*800 (2,40:1), в 23,976 кадра/сек
Аудио №1: AC3, 384 Кбит/сек, 48 КГц, 5.1 - русский
Аудио №2: E-AC3, 640 Кбит/сек, 48 КГц, 5.1 - английский


[+] MediaInfo

Общее
Уникальный идентификатор                 : 250638513827659764286953191053584627888 (0xBC8F38CE6BE019D3AA1BE8DD1A35F8B0)
Полное имя                               : V:!RipsSpinning Man (2018)Spinning.Man.2018.1080p.AMZN.WEB-DL.DDP5.1.H.264-NTG-stalkerok.new-team.mkv
Формат                                   : Matroska
Версия формата                           : Version 4 / Version 2
Размер файла                             : 6,81 Гбайт
Продолжительность                        : 1 ч. 40 м.
Режим общего битрейта                    : Переменный
Общий поток                              : 9692 Кбит/сек
Название фильма                          : Spinning Man (2018)
Дата кодирования                         : UTC 2018-04-15 18:46:54
Программа кодирования                    : mkvmerge v8.6.1 ('Flying') 64bit
Библиотека кодирования                   : libebml v1.3.3 + libmatroska v1.4.4

Видео
Идентификатор                            : 1
Формат                                   : AVC
Формат/Информация                        : Advanced Video Codec
Профиль формата                          : High@L4
Параметр CABAC формата                   : Да
Параметр ReFrames формата                : 4 кадра
Идентификатор кодека                     : V_MPEG4/ISO/AVC
Продолжительность                        : 1 ч. 40 м.
Вид битрейта                             : Переменный
Битрейт                                  : 8665 Кбит/сек
Максимальный битрейт                     : 15,0 Мбит/сек
Ширина                                   : 1920 пикселей
Высота                                   : 800 пикселей
Соотношение сторон                       : 2,40:1
Режим частоты кадров                     : Постоянный
Частота кадров                           : 23,976 (24000/1001) кадра/сек
Цветовое пространство                    : YUV
Субдискретизация насыщенности            : 4:2:0
Битовая глубина                          : 8 бит
Тип развёртки                            : Прогрессивная
Бит/(Пиксели*Кадры)                      : 0.235
Размер потока                            : 6,09 Гбайт (89%)
Заголовок                                : Spinning Man (2018)
Default                                  : Да
Forced                                   : Нет
Цветовой диапазон                        : Limited
Основные цвета                           : BT.709
Характеристики трансфера                 : BT.709
Коэффициенты матрицы                     : BT.709

Аудио #1
Идентификатор                            : 2
Формат                                   : AC-3
Формат/Информация                        : Audio Coding 3
Расширение режима                        : CM (complete main)
Параметр Endianness формата              : Big
Идентификатор кодека                     : A_AC3
Продолжительность                        : 1 ч. 40 м.
Вид битрейта                             : Постоянный
Битрейт                                  : 384 Кбит/сек
Каналы                                   : 6 каналов
Расположение каналов                     : Front: L C R, Side: L R, LFE
Частота                                  : 48,0 КГц
Частота кадров                           : 31,250 кадров/сек (1536 spf)
Метод сжатия                             : С потерями
Размер потока                            : 276 Мбайт (4%)
Заголовок                                : HiWay Grope
Язык                                     : Russian
Default                                  : Да
Forced                                   : Нет

Аудио #2
Идентификатор                            : 3
Формат                                   : E-AC-3
Формат/Информация                        : Audio Coding 3
Параметр Endianness формата              : Big
Идентификатор кодека                     : A_EAC3
Продолжительность                        : 1 ч. 40 м.
Вид битрейта                             : Постоянный
Битрейт                                  : 640 Кбит/сек
Каналы                                   : 6 каналов
Расположение каналов                     : Front: L C R, Side: L R, LFE
Частота                                  : 48,0 КГц
Частота кадров                           : 187,500 кадров/сек (256 spf)
Метод сжатия                             : С потерями
Размер потока                            : 460 Мбайт (7%)
Язык                                     : English
Default                                  : Нет
Forced                                   : Нет

Текст #1
Идентификатор                            : 4
Формат                                   : UTF-8
Идентификатор кодека                     : S_TEXT/UTF8
Идентификатор кодека/Информация          : UTF-8 Plain Text
Продолжительность                        : 1 ч. 35 м.
Битрейт                                  : 67 бит/сек
Count of elements                        : 1588
Размер потока                            : 47,3 Кбайт (0%)
Язык                                     : English
Default                                  : Нет
Forced                                   : Нет

Текст #2
Идентификатор                            : 5
Формат                                   : UTF-8
Идентификатор кодека                     : S_TEXT/UTF8
Идентификатор кодека/Информация          : UTF-8 Plain Text
Продолжительность                        : 1 ч. 39 м.
Битрейт                                  : 68 бит/сек
Count of elements                        : 1692
Размер потока                            : 50,0 Кбайт (0%)
Заголовок                                : SDH
Язык                                     : English
Default                                  : Нет
Forced                                   : Нет




Скриншоты:
[+] Всего файлов в раздаче - 1:
Spinning.Man.2018.1080p.AMZN.WEB-DL.DDP5.1.H.264-NTG-stalkerok.new-team.mkv6.81 GB

Текущая раздача:
ДатаКомментарии    РазмерПиры
2018-04-16 U На грани безумия / Spinning Man (2018) WEB-DL 1080p от New-Team | HiWay Grope 6.81 GB ↑ 37 ↓ 37

Показать еще раздачи по запросу грани:
2018-04-16 U На грани безумия / Spinning Man (2018) WEB-DLRip-AVC от New-Team | HiWay Grope 1.50 GB ↑ 30 ↓ 8
2018-04-12 U На грани безумия / Spinning Man (2018) WEBRip 720p | L2 1.75 GB ↑ 348 ↓ 151
2018-04-12 U На грани безумия / Spinning Man (2018) WEBRip | L2 1.41 GB ↑ 119 ↓ 88
2017-12-19 U Григорий Шаргородский - Грани страха (2017) MP3 414.55 MB ↑ 72 ↓ 13
2017-05-22 U Фрэнсис Эшкрофт - На грани возможного. Наука выживания (2016) FB2 12.26 MB ↑ 222 ↓ 23
2016-06-13 U На грани добра и зла / Borderline (2014) HDRip | L1 1.46 GB ↑ 349 ↓ 97
2016-06-05 U Планета на грани исчезновения / Mass Extinction: Life on the Brink (2014) HDTVRip 720p | P2 1.40 GB ↑ 169 ↓ 22

Отзывы
Зарегистрируйтесь чтобы добавить комментарий.
Обратная связь
Copyleft ©