↑↓Torrent.by
Поиск
Логин: Регистрация
Пароль: Восстановить пароль
Загрузка...

Смерть по прибытии / Dead on Arrival (2017) WEBRip 1080p | HDrezka Studio

Скачать smert-po-pribytii-dead-on-arrival-2017-webrip-1080p-hdrezka-studio.torrent
U Магнитная ссылка Размер: 3.57 GB Раздают: 76 Качают: 59 Добавлен: 2018-04-16 12:48:16
Смерть по прибытии / Dead on Arrival (2017) WEBRip 1080p | HDrezka Studio

Название: Смерть по прибытии
Оригинальное название: Dead on Arrival
Год выпуска: 2017
Жанр:  Триллер
Выпущено: США, Boatyard Productions
Режиссер: Стивен Сефер
В ролях: Криста Б. Аллен, Скотти Томпсон, Д.Б. Суини, Лилло Бранкато, Крис Малки, Билли Слотер, Лаура Флэннери, Билли Флинн, Мария О'Брайэн, Мэттью Полкамп

О фильме: Герой этой истории, волей своей работы, должен отправится в небольшой городок, с целью самой обычной командировки. По прибытию он будет должен подписать выгодный контракт с возможными партнерами, что заинтересованны в поставках новой вакцины. Вот только поездка будет далека от обычных трудовых будней героя. Ведь он окажется в довольно странной ситуации. Город, в который он должен прибыть, далек от понимания покоя. Пускай он небольшой, но его отрезанность от окружающего мира, в корне изменила облик существования там людей. Это место, буквально погрязло во множестве бандитских разборок и постоянных мелких войн за сферы влияния. И конечно же, местные полицейские, смотрят на это дело с малой долей заинтересованности. Как собственно делают и политики, что судя по всему, напрямую замешаны в преступные дела. И даже будущие партнеры героя, оказываются втянутыми в темные делишки. И именно по этой причине, самый обычный работник фирмы, вынужденно оказывается в самом центре всех этих проблем. Но выбора нет, он обязан закрыть сделку и выйти из данной ситуации победителем. Только судя по всему, будет его путь очень трудным. Ведь многие захотят помешать герою ввиду личной выгоды и методы их будут далеки от нормальных.

Качество: WEBRip 1080p
Видео: MPEG-4 AVC, 4389 Кбит/с, 1920x804
Аудио #1: Русский (AC3, 6 ch, 384 Кбит/с)
Аудио #2: английский (AC3, 6 ch, 384 Кбит/с)
Продолжительность: 01:37:10
Перевод: Любительский (многоголосый, закадровый)  [HDrezka Studio]
Субтитры: Английские

Без рекламы!


[+] MediaInfo
Unique ID                      : 173029528364893501188330374223987047681 (0x822C466603AA15589F50AA6151417D01)
Complete name                  : D:фильмыSmert po pribitiu.2017.WEBRip 1080p.mkv
Format                         : Matroska
Format version                 : Version 2
File size                      : 3.57 GiB
Duration                       : 1h 37mn
Overall bit rate               : 5 262 Kbps
Encoded date                   : UTC 2018-04-15 12:42:18
Writing application            : mkvmerge v7.8.0 ('River Man') 32bit built on Apr  3 2015 12:11:22
Writing library                : libebml v1.3.1 + libmatroska v1.4.2

Video
ID                             : 1
Format                         : AVC
Format/Info                    : Advanced Video Codec
Format profile                 : High@L4.0
Format settings, CABAC         : Yes
Format settings, ReFrames      : 5 frames
Codec ID                       : V_MPEG4/ISO/AVC
Duration                       : 1h 37mn
Bit rate                       : 4 389 Kbps
Width                          : 1 920 pixels
Height                         : 804 pixels
Display aspect ratio           : 2.40:1
Frame rate mode                : Constant
Frame rate                     : 23.976 fps
Color space                    : YUV
Chroma subsampling             : 4:2:0
Bit depth                      : 8 bits
Scan type                      : Progressive
Bits/(Pixel*Frame)             : 0.119
Stream size                    : 2.98 GiB (83%)
Language                       : English
Default                        : Yes
Forced                         : No
Color primaries                : BT.709
Transfer characteristics       : BT.709
Matrix coefficients            : BT.709

Audio #1
ID                             : 2
Format                         : AC-3
Format/Info                    : Audio Coding 3
Mode extension                 : CM (complete main)
Format settings, Endianness    : Big
Codec ID                       : A_AC3
Duration                       : 1h 37mn
Bit rate mode                  : Constant
Bit rate                       : 384 Kbps
Channel(s)                     : 6 channels
Channel positions              : Front: L C R, Side: L R, LFE
Sampling rate                  : 48.0 KHz
Bit depth                      : 16 bits
Compression mode               : Lossy
Stream size                    : 267 MiB (7%)
Language                       : Russian
Default                        : Yes
Forced                         : Yes

Audio #2
ID                             : 3
Format                         : AC-3
Format/Info                    : Audio Coding 3
Mode extension                 : CM (complete main)
Format settings, Endianness    : Big
Codec ID                       : A_AC3
Duration                       : 1h 37mn
Bit rate mode                  : Constant
Bit rate                       : 384 Kbps
Channel(s)                     : 6 channels
Channel positions              : Front: L C R, Side: L R, LFE
Sampling rate                  : 48.0 KHz
Bit depth                      : 16 bits
Compression mode               : Lossy
Stream size                    : 267 MiB (7%)
Language                       : English
Default                        : No
Forced                         : No

Text
ID                             : 4
Format                         : UTF-8
Codec ID                       : S_TEXT/UTF8
Codec ID/Info                  : UTF-8 Plain Text
Language                       : English
Default                        : No
Forced                         : No

Menu
00:00:00.000                   : en:1
00:04:01.241                   : en:2
00:12:11.773                   : en:3
00:18:54.133                   : en:4
00:26:30.756                   : en:5
00:29:32.938                   : en:6
00:36:11.294                   : en:7
00:41:59.976                   : en:8
00:48:26.278                   : en:9
00:53:37.964                   : en:10
01:01:42.948                   : en:11
01:07:06.771                   : en:12
01:11:59.563                   : en:13
01:17:18.423                   : en:14
01:24:25.933                   : en:15
01:31:53.839                   : en:16




Скриншоты:
[+] Всего файлов в раздаче - 1:
Smert po pribitiu.2017.WEBRip 1080p.mkv3.57 GB

Текущая раздача:
ДатаКомментарии    РазмерПиры
2018-04-16 U Смерть по прибытии / Dead on Arrival (2017) WEBRip 1080p | HDrezka Studio 3.57 GB ↑ 76 ↓ 59

Показать еще раздачи по запросу смерть:
2018-04-18 U Смерть по прибытии / Dead on Arrival (2017) WEB-DLRip от MegaPeer | HDrezka Studio 1.46 GB ↑ 61 ↓ 23
2018-04-17 U Смерть по прибытии / Dead on Arrival (2017) WEBRip-AVC от ExKinoRay | HDRezka Studio 1К745.88 MB ↑ 65 ↓ 19
2018-04-16 U Смерть по прибытии / Dead on Arrival (2017) WEBRip | HDrezka Studio 1.37 GB ↑ 12 ↓ 49
2018-03-21 U Смерть шпионам. Крым [02х01-08 из 08] (2008) SATRip-AVC 4.84 GB ↑ 8 ↓ 3
2018-03-20 U Смерть шпионам [01х01-08 из 08] (2007) SATRip-AVC 4.84 GB ↑ 44 ↓ 8
2018-03-05 U Смерть Сталина / The Death of Stalin (2017) BDRip 1080p от Ash61 | L, L2 9.59 GB ↑ 120 ↓ 99
2018-03-01 U Смерть Сталина / The Death of Stalin (2017) BDRip-AVC | HDrezka Studio 2.59 GB ↑ 78 ↓ 14

Отзывы
Зарегистрируйтесь чтобы добавить комментарий.
Обратная связь
Copyleft ©