↑↓Torrent.by
Поиск
Логин: Регистрация
Пароль: Восстановить пароль
Загрузка...

Сага о чудовище / Wildling (2018) WEBRip | L2

Скачать saga-o-chudovische-wildling-2018-webrip-l2.torrent
U Магнитная ссылка Размер: 1.30 GB Раздают: 68 Качают: 73 Добавлен: 2018-04-16 19:26:53
Сага о чудовище / Wildling (2018) WEBRip | L2

Название: Сага о чудовище
Оригинальное название: Wildling
Год выхода: 2018
Жанр: ужасы, фэнтези
Режиссер: Фридрих Боэм
В ролях: Лив Тайлер, Брэд Дуриф, Бел Паули, Джеймс ЛеГрос, Майк Фейст, Трой Раптэш, Бэвиш Патель, Фрэнк Дил, Келли Ламор Уилсон, Брайан Донахью и другие.

О фильме:
Выросшая в полной изоляции в лесной хижине 16-летняя Анна ничего не знает о внешнем мире, пока ее не находят местный шериф Эллен и ее 16-летний брат Рэй. Но, даже находясь под их защитой, Анна не перестает бояться будто бы охотящихся за ней страшных чудовищ, о которых ей рассказывал отец. Чем больше Анна открывает для себя новый мир, тем больше она проникает в тайну чудовищ и понимает, что ее жизнь неразрывно связана с этой легендой.

Страна: США, Maven Pictures, Film i Väst, Filmgate Films
Продолжительность: 01:33:03
Перевод: Любительский (двухголосый закадровый) | HiWay Grope
Файл
Кодек: XviD
Качество: WEBRip
Видео: 720x304, 23.976 fps, ~1609 kbps, 0.31 bit/pixel
Звук:
Аудио rus: AC3, 48 kHz, 6 ch, 384 Kbps
Субтитры: отсутствуют
Реклама: присутствует

Семпл

Релиз от: HiWay Grope


[+] MediaInfo:

General
Complete name                            : E:Wildling.2018.WEBRip.HiWayGropeWildling.2018.WEBRip.HiWayGrope.avi
Format                                   : AVI
Format/Info                              : Audio Video Interleave
File size                                : 1.30 GiB
Duration                                 : 1h 33mn
Overall bit rate                         : 2 002 Kbps
Writing application                      : VirtualDubMod 1.5.10.3 (build 2550/release)
Writing library                          : VirtualDubMod build 2550/release

Video
ID                                       : 0
Format                                   : MPEG-4 Visual
Format profile                           : Advanced Simple@L5
Format settings, BVOP                    : 1
Format settings, QPel                    : No
Format settings, GMC                     : No warppoints
Format settings, Matrix                  : Default (MPEG)
Codec ID                                 : XVID
Codec ID/Hint                            : XviD
Duration                                 : 1h 33mn
Bit rate                                 : 1 609 Kbps
Width                                    : 720 pixels
Height                                   : 304 pixels
Display aspect ratio                     : 2.35:1
Frame rate                               : 23.976 (23976/1000) fps
Color space                              : YUV
Chroma subsampling                       : 4:2:0
Bit depth                                : 8 bits
Scan type                                : Progressive
Compression mode                         : Lossy
Bits/(Pixel*Frame)                       : 0.307
Stream size                              : 1.05 GiB (80%)
Writing library                          : XviD 73

Audio
ID                                       : 1
Format                                   : AC-3
Format/Info                              : Audio Coding 3
Mode extension                           : CM (complete main)
Format settings, Endianness              : Big
Codec ID                                 : 2000
Duration                                 : 1h 33mn
Bit rate mode                            : Constant
Bit rate                                 : 384 Kbps
Channel(s)                               : 6 channels
Channel positions                        : Front: L C R, Side: L R, LFE
Sampling rate                            : 48.0 KHz
Frame rate                               : 31.250 fps (1536 spf)
Compression mode                         : Lossy
Stream size                              : 256 MiB (19%)
Alignment                                : Split accross interleaves
Interleave, duration                     : 42 ms (1.00 video frame)
Interleave, preload duration             : 500 ms




Скриншоты:
[+] Всего файлов в раздаче - 1:
Wildling.2018.WEBRip.HiWayGrope.avi1.30 GB

Текущая раздача:
ДатаКомментарии    РазмерПиры
2018-04-16 U Сага о чудовище / Wildling (2018) WEBRip | L2 1.30 GB ↑ 68 ↓ 73

Показать еще раздачи по запросу сага:
2018-04-23 U Сага о чудовище / Wildling (2018) WEB-DLRip-AVC от OlLanDGroup | HDRezka Studio 1.50 GB ↑ 22 ↓ 12
2018-04-23 U Сага о чудовище / Wildling (2018) WEB-DL 1080p от New-Team | L, L2, L1 1К5.24 GB ↑ 22 ↓ 6
2018-04-18 U Сага о чудовище / Wildling (2018) WEBRip от ExKinoRay | BadBajo 1.37 GB ↑ 58 ↓ 24
2018-04-17 U Сага о чудовище / Wildling (2018) WEBRip 720p | L2 2.13 GB ↑ 60 ↓ 23
2018-04-14 U Сага о чудовище / Wildling (2018) WEBRip 1080p от BadBajo | L1 4.87 GB ↑ 152 ↓ 182
2018-03-17 U Аксенов Василий - Московская сага. Трилогия (2008) FB2 4.11 MB ↑ 152 ↓ 6
2018-02-18 U Сурнин Александр - Запах фиалок. Сага о стройбате (2002) FB2 982.05 kB ↑ 153 ↓ 2

Отзывы
Зарегистрируйтесь чтобы добавить комментарий.
Обратная связь
Copyleft ©