↑↓Torrent.by
Поиск
Логин: Регистрация
Пароль: Восстановить пароль
Загрузка...

Вся наша надежда (2017) WEB-DLRip-AVC от ExKinoRay

Скачать vsya-nasha-nadezhda-2017-web-dlrip-avc-ot-exkinoray.torrent
U Магнитная ссылка Размер: 2.08 GB Раздают: 112 Качают: 19 Добавлен: 2018-04-20 10:15:53
Вся наша надежда (2017) WEB-DLRip-AVC от ExKinoRay

Информация о фильме
Название: Вся наша надежда
Год выпуска: 2017
Выпущено: Россия, Продюсерский центр «Парадиз»
Жанр:  Драма
Режиссер: Карен Геворкян
В ролях: Ульяна Жмурко, Анатолий Бойко, Наталья Иохвидова, Владимир Устюгов, Михаил Почтарев, Андрей Бакиров, Михаил Богданов, Георгий Маришин, Максим Пономаренко, Максим Остроушко

О фильме: Егор Иванович — неординарный и сильный человек с алтайскими корнями. Вместе с большой семьей он живет и работает в городе с говорящим названием «Шахты». Но с каждым годом жизнь уходит из этих мест, шахты закрываются, люди теряют работу, смысл, надежду… Он понимает, что надо спасать семью, здесь нет будущего для детей и внуков. После роковой аварии, во время которой погибают шахтеры, Егор принимает решение. Твердой рукой он поднимает свое семейство и через всю Россию отправляется на Алтай, в неизвестность, в некую новую жизнь на земле…

Продолжительность: 01:41:15
Перевод: Не требуется

Файл
Формат: MKV
Качество: WEB-DLRip-AVC
Видео: MPEG-4 AVC, 1024x576 (16:9), 25.000 fps, 2530 Kbps, 0.172 bit/pixel
Аудио: 48 kHz, AC3, 5.1 ch, ~384 kbps avg - Rus

За исходник спасибо - mzma

Релиз:

Автор релиза:


[+] MI
General
Unique ID                                : 220220524197568330803082858922535620449 (0xA5ACEE21115D6CDC9FC4BE460D210F61)
Complete name                            : D:Вся.наша.надежда.2017.WEB-DLRip.AVC.ExKinoRay.mkv
Format                                   : Matroska
Format version                           : Version 2
File size                                : 2.08 GiB
Duration                                 : 1 h 41 min
Overall bit rate                         : 2 947 kb/s
Movie name                               : Вся наша надежда 2017 from ExKinoRay
Encoded date                             : UTC 2018-04-19 11:07:57
Writing application                      : mkvmerge v5.6.0 ('Kenya Kane') built on May 27 2012 16:44:04
Writing library                          : libebml v1.2.3 + libmatroska v1.3.0

Video
ID                                       : 1
Format                                   : AVC
Format/Info                              : Advanced Video Codec
Format profile                           : High@L4.1
Format settings, CABAC                   : Yes
Format settings, ReFrames                : 12 frames
Codec ID                                 : V_MPEG4/ISO/AVC
Duration                                 : 1 h 41 min
Bit rate                                 : 2 530 kb/s
Width                                    : 1 024 pixels
Height                                   : 576 pixels
Display aspect ratio                     : 16:9
Frame rate mode                          : Constant
Frame rate                               : 25.000 FPS
Color space                              : YUV
Chroma subsampling                       : 4:2:0
Bit depth                                : 8 bits
Scan type                                : Progressive
Bits/(Pixel*Frame)                       : 0.172
Stream size                              : 1.77 GiB (85%)
Title                                    : Enigma
Writing library                          : x264 core 152 r2851 ba24899
Encoding settings                        : cabac=1 / ref=12 / deblock=1:-2:-2 / analyse=0x3:0x113 / me=umh / subme=10 / psy=1 / psy_rd=1.03:0.10 / mixed_ref=1 / me_range=32 / chroma_me=1 / trellis=2 / 8x8dct=1 / cqm=0 / deadzone=21,11 / fast_pskip=0 / chroma_qp_offset=-3 / threads=12 / lookahead_threads=3 / sliced_threads=0 / nr=0 / decimate=0 / interlaced=0 / bluray_compat=0 / constrained_intra=0 / bframes=12 / b_pyramid=2 / b_adapt=2 / b_bias=0 / direct=3 / weightb=1 / open_gop=0 / weightp=2 / keyint=250 / keyint_min=25 / scenecut=40 / intra_refresh=0 / rc_lookahead=40 / rc=2pass / mbtree=0 / bitrate=2530 / ratetol=1.0 / qcomp=0.60 / qpmin=0 / qpmax=51 / qpstep=4 / cplxblur=20.0 / qblur=0.5 / vbv_maxrate=50000 / vbv_bufsize=62500 / nal_hrd=none / filler=0 / ip_ratio=1.40 / pb_ratio=1.30 / aq=3:0.80
Language                                 : English
Default                                  : Yes
Forced                                   : No
Color range                              : Limited
Color primaries                          : BT.709
Transfer characteristics                 : BT.709
Matrix coefficients                      : BT.709

Audio
ID                                       : 2
Format                                   : AC-3
Format/Info                              : Audio Coding 3
Mode extension                           : CM (complete main)
Format settings, Endianness              : Big
Codec ID                                 : A_AC3
Duration                                 : 1 h 41 min
Bit rate mode                            : Constant
Bit rate                                 : 384 kb/s
Channel(s)                               : 6 channels
Channel positions                        : Front: L C R, Side: L R, LFE
Sampling rate                            : 48.0 kHz
Frame rate                               : 31.250 FPS (1536 spf)
Compression mode                         : Lossy
Stream size                              : 278 MiB (13%)
Language                                 : Russian
Default                                  : Yes
Forced                                   : No




Скриншоты:
[+] Всего файлов в раздаче - 1:
Вся.наша.надежда.2017.WEB-DLRip.AVC.ExKinoRay.mkv2.08 GB

Текущая раздача:
ДатаКомментарии    РазмерПиры
2018-04-20 U Вся наша надежда (2017) WEB-DLRip-AVC от ExKinoRay 2.08 GB ↑ 112 ↓ 19

Показать еще раздачи по запросу наша:
2018-04-21 U Вся наша надежда (2017) WEB-DLRip от Portablius 2К699.22 MB ↑ 81 ↓ 20
2018-04-20 U Вся наша надежда (2017) WEB-DLRip от KORSAR 1.59 GB ↑ 192 ↓ 54
2018-04-20 U Вся наша надежда (2017) WEB-DLRip 720p от KORSAR 3.63 GB ↑ 129 ↓ 39
2018-01-12 U Александр Жикаренцев - Создан, чтобы летать. Наша старая добрая фантастика [сборник] (2018) FB2 3.72 MB ↑ 258 ↓ 1
2016-11-08 U Михаил Евдокимов - Вся наша жизнь - пародия ! (1998) MP3 128.96 MB ↑ 249 ↓ 3
2016-07-27 U Обреченные. Наша Гражданская Война [01-04 из 04] (2016) HDTVRip-AVC 4.10 GB ↑ 472 ↓ 49
2015-05-28 U Наша рыбалка. Щука на кружки. [2013, Рыбалка, WEB-Rip] 610.68 MB ↑ 404 ↓ 20

Отзывы
Зарегистрируйтесь чтобы добавить комментарий.
Обратная связь
Copyleft ©