↑↓Torrent.by
Поиск
Логин: Регистрация
Пароль: Восстановить пароль
Загрузка...

Вся наша надежда (2017) WEB-DLRip 720p от KORSAR

Скачать vsya-nasha-nadezhda-2017-web-dlrip-720p-ot-korsar.torrent
U Магнитная ссылка Размер: 3.63 GB Раздают: 124 Качают: 39 Добавлен: 2018-04-20 10:16:33
Вся наша надежда (2017) WEB-DLRip 720p от KORSAR

Название: Вся наша надежда
Год выпуска: 2017
Выпущено: Россия, Продюсерский центр «Парадиз»
Жанр:  Драма
Режиссер: Карен Геворкян
В ролях: Ульяна Жмурко, Анатолий Бойко, Наталья Иохвидова, Владимир Устюгов, Михаил Почтарев, Андрей Бакиров, Михаил Богданов, Георгий Маришин, Максим Пономаренко, Максим Остроушко

О фильме:
Егор Иванович — неординарный и сильный человек с алтайскими корнями. Вместе с большой семьей он живет и работает в городе с говорящим названием «Шахты». Но с каждым годом жизнь уходит из этих мест, шахты закрываются, люди теряют работу, смысл, надежду… Он понимает, что надо спасать семью, здесь нет будущего для детей и внуков. После роковой аварии, во время которой погибают шахтеры, Егор принимает решение. Твердой рукой он поднимает свое семейство и через всю Россию отправляется на Алтай, в неизвестность, в некую новую жизнь на земле…

Продолжительность: 01:41:15
Перевод: Не требуется
Субтитры: Нет

Файл
Качество: WEB-DLRip 720p
Видео: MPEG-4 AVC, 4721 Кбит/сек, 1280x720, 25,000 кадров/сек
Аудио: AC3, 6 ch, 384 Кбит/сек | Русский

Релиз:


[+] Инфо-файл
x264 [info]: frame I:772   Avg QP:17.72  size:143341
x264 [info]: frame P:34559 Avg QP:20.97  size: 51266
x264 [info]: frame B:116543 Avg QP:22.76  size: 14772
-----------------------------------------------------
Общее
Уникальный идентификатор                 : 252097396876733167130281020333053357313 (0xBDA8314B43BFDDF29FBF33851E76AD01)
Полное имя                               : Вся.наша.надежда.2017.WEB-DLRip.720p.KORSAR.mkv
Формат                                   : Matroska
Версия формата                           : Version 2
Размер файла                             : 3,63 Гбайт
Продолжительность                        : 1 ч. 41 м.
Общий поток                              : 5132 Кбит/сек
Дата кодирования                         : UTC 2018-04-18 13:43:19
Программа кодирования                    : mkvmerge v5.8.0 ('No Sleep / Pillow') built on Sep  2 2012 15:37:04
Библиотека кодирования                   : libebml v1.2.3 + libmatroska v1.3.0

Видео
Идентификатор                            : 1
Формат                                   : AVC
Формат/Информация                        : Advanced Video Codec
Профиль формата                          : High@L4.1
Настройки формата                        : CABAC / 9 Ref Frames
Параметр CABAC формата                   : Да
Параметр RefFrames формата               : 9 кадров
Идентификатор кодека                     : V_MPEG4/ISO/AVC
Продолжительность                        : 1 ч. 41 м.
Битрейт                                  : 4721 Кбит/сек
Ширина                                   : 1280 пикселей
Высота                                   : 720 пикселей
Соотношение сторон                       : 16:9
Режим частоты кадров                     : Постоянный
Частота кадров                           : 25,000 кадров/сек
Цветовое пространство                    : YUV
Субдискретизация насыщенности            : 4:2:0
Битовая глубина                          : 8 бит
Тип развёртки                            : Прогрессивная
Бит/(Пиксели*Кадры)                      : 0.205
Размер потока                            : 3,29 Гбайт (91%)
Заголовок                                : RIP | MZMA
Библиотека кодирования                   : x264 core 152 r2851kMod ba24899
Настройки программы                      : cabac=1 / ref=9 / deblock=1:-3:-3 / analyse=0x3:0x113 / me=umh / subme=11 / psy=1 / fade_compensate=0.00 / psy_rd=1.00:0.00 / mixed_ref=1 / me_range=48 / chroma_me=1 / trellis=2 / 8x8dct=1 / cqm=0 / deadzone=21,11 / fast_pskip=0 / chroma_qp_offset=-2 / threads=6 / lookahead_threads=1 / sliced_threads=0 / nr=0 / decimate=0 / interlaced=0 / bluray_compat=0 / constrained_intra=0 / bframes=16 / b_pyramid=2 / b_adapt=2 / b_bias=0 / direct=3 / weightb=1 / open_gop=0 / weightp=2 / keyint=240 / keyint_min=24 / scenecut=40 / intra_refresh=0 / rc_lookahead=40 / rc=2pass / mbtree=0 / bitrate=4721 / ratetol=1.0 / qcomp=0.60 / qpmin=0 / qpmax=69 / qpstep=4 / cplxblur=20.0 / qblur=0.5 / vbv_maxrate=50000 / vbv_bufsize=62500 / nal_hrd=none / filler=0 / ip_ratio=1.40 / pb_ratio=1.30 / aq=3:0.70
Язык                                     : Russian
Default                                  : Да
Forced                                   : Нет
Цветовой диапазон                        : Limited
Основные цвета                           : BT.709
Характеристики трансфера                 : BT.709
Коэффициенты матрицы                     : BT.709

Аудио
Идентификатор                            : 2
Формат                                   : AC-3
Формат/Информация                        : Audio Coding 3
Идентификатор кодека                     : A_AC3
Продолжительность                        : 1 ч. 41 м.
Вид битрейта                             : Постоянный
Битрейт                                  : 384 Кбит/сек
Каналы                                   : 6 каналов
Расположение каналов                     : Front: L C R, Side: L R, LFE
Частота                                  : 48,0 КГц
Частота кадров                           : 31,250 кадров/сек (1536 SPF)
Битовая глубина                          : 16 бит
Метод сжатия                             : С потерями
Размер потока                            : 278 Мбайт (7%)
Язык                                     : Russian
По умолчанию                             : Да
Принудительно                            : Нет



[+] Благодарности
• За исходник спасибо - george$t.






Скриншоты:
[+] Всего файлов в раздаче - 1:
Вся.наша.надежда.2017.WEB-DLRip.720p.KORSAR.mkv3.63 GB

Текущая раздача:
ДатаКомментарии    РазмерПиры
2018-04-20 U Вся наша надежда (2017) WEB-DLRip 720p от KORSAR 3.63 GB ↑ 124 ↓ 39

Показать еще раздачи по запросу наша:
2018-04-21 U Вся наша надежда (2017) WEB-DLRip от Portablius 2К699.22 MB ↑ 79 ↓ 20
2018-04-20 U Вся наша надежда (2017) WEB-DLRip от KORSAR 1.59 GB ↑ 180 ↓ 54
2018-04-20 U Вся наша надежда (2017) WEB-DLRip-AVC от ExKinoRay 2.08 GB ↑ 112 ↓ 19
2018-01-12 U Александр Жикаренцев - Создан, чтобы летать. Наша старая добрая фантастика [сборник] (2018) FB2 3.72 MB ↑ 253 ↓ 1
2016-11-08 U Михаил Евдокимов - Вся наша жизнь - пародия ! (1998) MP3 128.96 MB ↑ 240 ↓ 3
2016-07-27 U Обреченные. Наша Гражданская Война [01-04 из 04] (2016) HDTVRip-AVC 4.10 GB ↑ 472 ↓ 49
2015-05-28 U Наша рыбалка. Щука на кружки. [2013, Рыбалка, WEB-Rip] 610.68 MB ↑ 404 ↓ 20

Отзывы
Зарегистрируйтесь чтобы добавить комментарий.
Обратная связь
Copyleft ©