↑↓Torrent.by
Поиск
Логин: Регистрация
Пароль: Восстановить пароль
Загрузка...

Вся наша надежда (2017) WEB-DLRip от KORSAR

Скачать vsya-nasha-nadezhda-2017-web-dlrip-ot-korsar.torrent
U Магнитная ссылка Размер: 1.59 GB Раздают: 186 Качают: 54 Добавлен: 2018-04-20 10:16:56
Вся наша надежда (2017) WEB-DLRip от KORSAR

Название: Вся наша надежда
Год выпуска: 2017
Выпущено: Россия, Продюсерский центр «Парадиз»
Жанр:  Драма
Режиссер: Карен Геворкян
В ролях: Ульяна Жмурко, Анатолий Бойко, Наталья Иохвидова, Владимир Устюгов, Михаил Почтарев, Андрей Бакиров, Михаил Богданов, Георгий Маришин, Максим Пономаренко, Максим Остроушко

О фильме:
Егор Иванович — неординарный и сильный человек с алтайскими корнями. Вместе с большой семьей он живет и работает в городе с говорящим названием «Шахты». Но с каждым годом жизнь уходит из этих мест, шахты закрываются, люди теряют работу, смысл, надежду… Он понимает, что надо спасать семью, здесь нет будущего для детей и внуков. После роковой аварии, во время которой погибают шахтеры, Егор принимает решение. Твердой рукой он поднимает свое семейство и через всю Россию отправляется на Алтай, в неизвестность, в некую новую жизнь на земле…

Продолжительность: 01:41:15
Перевод: Не требуется
Субтитры: Нет

Файл
Формат: AVI
Качество: WEB-DLRip
Видео: XviD, 1851 Кбит/сек, 720x400, 25,000 кадров/сек
Аудио: AC3, 6 ch, 384 Кбит/сек | Русский

Релиз:


[+] Инфо-файл
Общее
Полное имя                               : Vsya.nasha.nadezhda.2017.WEB-DLRip.KORSAR.avi
Формат                                   : AVI
Формат/Информация                        : Audio Video Interleave
Размер файла                             : 1,59 Гбайт
Продолжительность                        : 1 ч. 41 м.
Общий поток                              : 2245 Кбит/сек
Программа кодирования                    : VirtualDubModRus 1.5.10.2 (build 2542/release)
Библиотека кодирования                   : VirtualDubMod build 2542/release

Видео
Идентификатор                            : 0
Формат                                   : MPEG-4 Visual
Профиль формата                          : Advanced Simple@L5
Настройки формата                        : BVOP1 / Custom Matrix
Параметр BVOP формата                    : 1
Параметр QPel формата                    : Нет
Параметр GMC формата                     : Без точки перехода
Параметр матрицы формата                 : Выборочная
Идентификатор кодека                     : XVID
Идентификатор кодека/Подсказка           : XviD
Продолжительность                        : 1 ч. 41 м.
Битрейт                                  : 1851 Кбит/сек
Ширина                                   : 720 пикселей
Высота                                   : 400 пикселей
Соотношение сторон                       : 16:9
Частота кадров                           : 25,000 кадров/сек
Цветовое пространство                    : YUV
Субдискретизация насыщенности            : 4:2:0
Битовая глубина                          : 8 бит
Тип развёртки                            : Прогрессивная
Метод сжатия                             : С потерями
Бит/(Пиксели*Кадры)                      : 0.257
Размер потока                            : 1,31 Гбайт (82%)
Библиотека кодирования                   : XviD 1.2.1 (UTC 2008-12-04)

Аудио
Идентификатор                            : 1
Формат                                   : AC-3
Формат/Информация                        : Audio Coding 3
Идентификатор кодека                     : 2000
Продолжительность                        : 1 ч. 41 м.
Вид битрейта                             : Постоянный
Битрейт                                  : 384 Кбит/сек
Каналы                                   : 6 каналов
Расположение каналов                     : Front: L C R, Side: L R, LFE
Частота                                  : 48,0 КГц
Частота кадров                           : 31,250 кадров/сек (1536 SPF)
Битовая глубина                          : 16 бит
Метод сжатия                             : С потерями
Размер потока                            : 278 Мбайт (17%)
Выравнивание                             : Соединение по промежуткам
Продолжительность промежутка             : 40  мс. (1,00 видеокадр)
Время предзагрузки промежутка            : 512  мс.



[+] Благодарности
• За исходник спасибо - george$t.



Скриншоты:
[+] Всего файлов в раздаче - 1:
Vsya.nasha.nadezhda.2017.WEB-DLRip.KORSAR.avi1.59 GB

Текущая раздача:
ДатаКомментарии    РазмерПиры
2018-04-20 U Вся наша надежда (2017) WEB-DLRip от KORSAR 1.59 GB ↑ 186 ↓ 54

Показать еще раздачи по запросу наша:
2018-04-21 U Вся наша надежда (2017) WEB-DLRip от Portablius 2К699.22 MB ↑ 79 ↓ 20
2018-04-20 U Вся наша надежда (2017) WEB-DLRip 720p от KORSAR 3.63 GB ↑ 126 ↓ 39
2018-04-20 U Вся наша надежда (2017) WEB-DLRip-AVC от ExKinoRay 2.08 GB ↑ 112 ↓ 19
2018-01-12 U Александр Жикаренцев - Создан, чтобы летать. Наша старая добрая фантастика [сборник] (2018) FB2 3.72 MB ↑ 256 ↓ 1
2016-11-08 U Михаил Евдокимов - Вся наша жизнь - пародия ! (1998) MP3 128.96 MB ↑ 245 ↓ 3
2016-07-27 U Обреченные. Наша Гражданская Война [01-04 из 04] (2016) HDTVRip-AVC 4.10 GB ↑ 472 ↓ 49
2015-05-28 U Наша рыбалка. Щука на кружки. [2013, Рыбалка, WEB-Rip] 610.68 MB ↑ 404 ↓ 20

Отзывы
Зарегистрируйтесь чтобы добавить комментарий.
Обратная связь
Copyleft ©