↑↓Torrent.by
Поиск
Логин: Регистрация
Пароль: Восстановить пароль
Загрузка...

Вся наша надежда (2017) WEB-DLRip от Portablius

Скачать vsya-nasha-nadezhda-2017-web-dlrip-ot-portablius.torrent
U Магнитная ссылка Размер: 699.22 MB Раздают: 82 Качают: 22 Добавлен: 2018-04-21 09:51:20
Вся наша надежда (2017) WEB-DLRip от Portablius

Название: Вся наша надежда
Год выхода: 2017
Жанр: Драма
Режиссер: Карен Геворкян
В ролях: Ульяна Жмурко, Анатолий Бойко, Наталья Иохвидова, Владимир Устюгов, Михаил Почтарев, Андрей Бакиров, Михаил Богданов, Георгий Маришин, Максим Пономаренко, Максим Остроушко

О фильме: Егор Иванович — неординарный и сильный человек с алтайскими корнями. Вместе с большой семьей он живет и работает в городе с говорящим названием «Шахты». Но с каждым годом жизнь уходит из этих мест, шахты закрываются, люди теряют работу, смысл, надежду… Он понимает, что надо спасать семью, здесь нет будущего для детей и внуков. После роковой аварии, во время которой погибают шахтеры, Егор принимает решение. Твердой рукой он поднимает свое семейство и через всю Россию отправляется на Алтай, в неизвестность, в некую новую жизнь на земле…

Страна: Россия
Студия: Продюсерский центр «Парадиз»
Продолжительность: 01:41:15
Перевод: Не требуется
Субтитры: Нет

Файл
Кодек: XviD
Качество: WEB-DLRip
Видео: 624x352 (1.77:1), 25 fps, XviD build 73 ~827 kbps avg, 0.15 bit/pixel
Звук: 48 kHz, MPEG Layer 3, 2 ch, ~128.00 kbps avg


[+] MediaInfo
General
Complete name               : Vsya.nasha.nadezhda.2017.WEB-DLRip.ot.Portablius.avi
Format                      : AVI
Format/Info                 : Audio Video Interleave
File size                   : 699 MiB
Duration                    : 1 h 41 min
Overall bit rate            : 966 kb/s
Writing application         : VirtualDubMod 1.5.10.3 | www.virtualdub-fr.org || (build 2550/release)
Writing library             : VirtualDubMod build 2550/release

Video
ID                          : 0
Format                      : MPEG-4 Visual
Format profile              : Advanced Simple@L5
Format settings, BVOP       : 1
Format settings, QPel       : No
Format settings, GMC        : No warppoints
Format settings, Matrix     : Custom
Codec ID                    : XVID
Codec ID/Hint               : XviD
Duration                    : 1 h 41 min
Bit rate                    : 828 kb/s
Width                       : 624 pixels
Height                      : 352 pixels
Display aspect ratio        : 16:9
Frame rate                  : 25.000 FPS
Color space                 : YUV
Chroma subsampling          : 4:2:0
Bit depth                   : 8 bits
Scan type                   : Progressive
Compression mode            : Lossy
Bits/(Pixel*Frame)          : 0.151
Stream size                 : 599 MiB (86%)
Writing library             : XviD 73

Audio
ID                          : 1
Format                      : MPEG Audio
Format version              : Version 1
Format profile              : Layer 3
Codec ID                    : 55
Codec ID/Hint               : MP3
Duration                    : 1 h 41 min
Bit rate mode               : Constant
Bit rate                    : 128 kb/s
Channel(s)                  : 2 channels
Sampling rate               : 48.0 kHz
Compression mode            : Lossy
Stream size                 : 92.7 MiB (13%)
Alignment                   : Aligned on interleaves
Interleave, duration        : 40  ms (1.00 video frame)
Interleave, preload duratio : 504  ms
Writing library             : LAME3.99r
Encoding settings           : -m s -V 4 -q 2 -lowpass 17 -b 128




Скриншоты:
[+] Всего файлов в раздаче - 1:
Vsya.nasha.nadezhda.2017.WEB-DLRip.ot.Portablius.avi699.22 MB

Текущая раздача:
ДатаКомментарии    РазмерПиры
2018-04-21 U Вся наша надежда (2017) WEB-DLRip от Portablius 2 К 699.22 MB ↑ 82 ↓ 22

Показать еще раздачи по запросу наша:
2018-04-20 U Вся наша надежда (2017) WEB-DLRip от KORSAR 1.59 GB ↑ 352 ↓ 55
2018-04-20 U Вся наша надежда (2017) WEB-DLRip 720p от KORSAR 3.63 GB ↑ 131 ↓ 40
2018-04-20 U Вся наша надежда (2017) WEB-DLRip-AVC от ExKinoRay 2.08 GB ↑ 128 ↓ 20
2018-01-12 U Александр Жикаренцев - Создан, чтобы летать. Наша старая добрая фантастика [сборник] (2018) FB2 3.72 MB ↑ 293 ↓ 5
2016-11-08 U Михаил Евдокимов - Вся наша жизнь - пародия ! (1998) MP3 128.96 MB ↑ 337 ↓ 3
2016-07-27 U Обреченные. Наша Гражданская Война [01-04 из 04] (2016) HDTVRip-AVC 4.10 GB ↑ 472 ↓ 49
2015-05-28 U Наша рыбалка. Щука на кружки. [2013, Рыбалка, WEB-Rip] 610.68 MB ↑ 417 ↓ 26

Отзывы
facepalm_666
фильм серьёзный. Но реально придавливает. Безнадёга голимая. И все по своим углам разбежались. Атомизация общества в чистом виде. Настало время разваливать Россию, как в своё время развалили СССР.

bobsms
что то наши депресуху одну снимают, драмы, мелодрамы, или наркоманы или алкоголики запарили.

Зарегистрируйтесь чтобы добавить комментарий.
Обратная связь
Copyleft ©