↑↓Torrent.by
Поиск
Логин: Регистрация
Пароль: Восстановить пароль
Загрузка...

Кролик Багз или Дорожный бегун / The Bugs Bunny Road Runner Movie (1979) WEB-DL 1080p | D

Скачать krolik-bagz-ili-dorozhnyy-begun-the-bugs-bunny-road-runner-movie-1979-web-dl-1080p-d.torrent
U Магнитная ссылка Размер: 6.37 GB Раздают: 36 Качают: 14 Добавлен: 2018-04-22 07:47:20
Кролик Багз или Дорожный бегун / The Bugs Bunny Road Runner Movie (1979) WEB-DL 1080p | D

Название: Кролик Багз или Дорожный бегун
Оригинальное название: The Bugs Bunny Road Runner Movie
Год выпуска: 1979
Выпущено: США, Warner Bros. Pictures
Жанр:  Мультфильм, комедия, семейный
Режиссер: Чак Джоунс, Фил Монро
Роли озвучивали: Мэл Бланк, Артур К. Брайан, Джун Форэй, Николай Шуторов

О фильме:
Мультфильм представляет собой компиляцию из 11 короткометражных мультфильмов серии Looney Tunes. Между мультфильмами показан главный герой — Багз Банни, который рассказывает зрителю о своей жизни и об истории появления погони в кинематографе.

Продолжительность: 01:37:53
Перевод: Дублированный
Субтитры: Английские
Навигация по главам: Есть

Файл
Качество: WEB-DL 1080p
Видео: HEVC, 8687 Кбит/сек, 1920x1080, 23,976 кадра/сек
Аудио #1: AC3, 2 ch, 224 Кбит/сек | Русский, профессиональный (полное дублирование) "Варус видео".
Аудио #2: EAC3, 2 ch, 224 Кбит/сек | Английский, оригинал



[+] Внимание!
- H.265/HEVC (High Efficiency Video Coding) - это новый стандарт кодирования видео.
- Стандарт H.265/HEVC является логическим продолжением стандарта H.264/AVC (Advanced Video Coding), и характеризуется более эффективными алгоритмами сжатия, а также поддержкой высокого разрешения вплоть до 8K UHD (8192x4320). Первая версия стандарта H.265 была опубликована в начале 2013 года.
- Рипы в фомате HEVC поддерживается не всеми аппаратными проигрывателями.
- Для корректного воспроизведения может потребоваться обновление ПО.
- Владельцам несовместимого железа просьба не беспокоить, есть альтернативные релизы.



[+] Инфо-файл
Общее
Уникальный идентификатор                 : 229778772719284875033355722557573617964 (0xACDDC82A5DD4FCCFB221370BBF88D92C)
Полное имя                               : Кролик.Багз.или.Дорожный.бегун.1979.WEB-DL.1080p.mkv
Формат                                   : Matroska
Версия формата                           : Version 2
Размер файла                             : 6,37 Гбайт
Продолжительность                        : 1 ч. 37 м.
Общий поток                              : 9321 Кбит/сек
Дата кодирования                         : UTC 2018-04-21 09:27:20
Программа кодирования                    : mkvmerge v5.8.0 ('No Sleep / Pillow') built on Sep  2 2012 15:37:04
Библиотека кодирования                   : libebml v1.2.3 + libmatroska v1.3.0

Видео
Идентификатор                            : 1
Формат                                   : HEVC
Формат/Информация                        : High Efficiency Video Coding
Профиль формата                          : Main@L4@Main
Идентификатор кодека                     : V_MPEGH/ISO/HEVC
Продолжительность                        : 1 ч. 37 м.
Битрейт                                  : 8687 Кбит/сек
Ширина                                   : 1920 пикселей
Высота                                   : 1080 пикселей
Соотношение сторон                       : 16:9
Режим частоты кадров                     : Постоянный
Частота кадров                           : 23,976 (24000/1001) кадра/сек
Стандарт вещания                         : NTSC
Цветовое пространство                    : YUV
Субдискретизация насыщенности            : 4:2:0
Битовая глубина                          : 8 бит
Бит/(Пиксели*Кадры)                      : 0.175
Размер потока                            : 5,94 Гбайт (93%)
Язык                                     : English
Default                                  : Да
Forced                                   : Нет
Цветовой диапазон                        : Limited
Основные цвета                           : BT.709
Характеристики трансфера                 : BT.709
Коэффициенты матрицы                     : BT.709

Аудио #1
Идентификатор                            : 2
Формат                                   : AC-3
Формат/Информация                        : Audio Coding 3
Идентификатор кодека                     : A_AC3
Продолжительность                        : 1 ч. 37 м.
Вид битрейта                             : Постоянный
Битрейт                                  : 224 Кбит/сек
Каналы                                   : 2 канала
Расположение каналов                     : Front: L R
Частота                                  : 48,0 КГц
Частота кадров                           : 31,250 кадров/сек (1536 SPF)
Битовая глубина                          : 16 бит
Метод сжатия                             : С потерями
Размер потока                            : 157 Мбайт (2%)
Заголовок                                : DUB | Варус видео
Язык                                     : Russian
По умолчанию                             : Да
Принудительно                            : Нет

Аудио #2
Идентификатор                            : 3
Формат                                   : E-AC-3
Формат/Информация                        : Enhanced Audio Coding 3
Идентификатор кодека                     : A_EAC3
Продолжительность                        : 1 ч. 37 м.
Вид битрейта                             : Постоянный
Битрейт                                  : 224 Кбит/сек
Каналы                                   : 2 канала
Расположение каналов                     : Front: L R
Частота                                  : 48,0 КГц
Частота кадров                           : 187,500 кадров/сек (256 SPF)
Метод сжатия                             : С потерями
Размер потока                            : 157 Мбайт (2%)
Заголовок                                : Original
Язык                                     : English
По умолчанию                             : Нет
Принудительно                            : Нет

Текст
Идентификатор                            : 4
Формат                                   : UTF-8
Идентификатор кодека                     : S_TEXT/UTF8
Идентификатор кодека/Информация          : UTF-8 Plain Text
Язык                                     : English
По умолчанию                             : Нет
Принудительно                            : Нет

Меню
00:00:00.000                             : en:Studio Logo
00:00:14.000                             : en:Opening Credits
00:01:18.000                             : en:Bugs Bunny Introduces Himself
00:02:40.000                             : en:The History of Chases
00:05:26.000                             : en:The Birth of Comedy
00:07:34.000                             : en:Hare-Way to the Stars
00:09:12.000                             : en:Bugs Bunny Tries to Get Home
00:11:11.000                             : en:The Martians Chase Bugs
00:12:39.000                             : en:Bugs Gets Away
00:13:47.000                             : en:Duck Dodgers in the 24½th Century
00:17:03.000                             : en:Dodgers Lands on Planet X
00:19:24.000                             : en:Dodgers Uses His Secret Weapon
00:20:27.000                             : en:Robin Hood Daffy
00:20:53.000                             : en:Robin Hood Sings
00:23:20.000                             : en:Robin Hood Wants to Prove His Identity
00:26:09.000                             : en:Duck Amuck
00:26:24.000                             : en:Daffy Duck Vs The Animator
00:32:44.000                             : en:Bully For Bugs
00:34:57.000                             : en:Bugs Bunny Vs the Bull
00:36:13.000                             : en:Bugs and the Bull Continue to Pursue Each Other
00:39:26.000                             : en:Ali Baba Bunny
00:41:59.000                             : en:Hassan Pursues Daffy
00:44:18.000                             : en:Bugs Gets Rid of Hassan
00:45:09.000                             : en:Daffy Finds an Actual Genie
00:46:17.000                             : en:Rabbit Fire
00:49:31.000                             : en:Wabbit vs Duck Season
00:52:02.000                             : en:Elmer Pursues Bugs and Daffy
00:53:26.000                             : en:For Scent-imental Reasons
00:56:11.000                             : en:Pepe Seaches for Penelope
00:58:47.000                             : en:The Tables Turn
00:59:30.000                             : en:Long-Haired Hare
01:02:27.000                             : en:Bugs Gets His Revenge
01:05:08.000                             : en:What's Opera, Doc
01:07:51.000                             : en:Bugs Disguises Himself as Brunhilde
01:09:23.000                             : en:Elmer and Bugs Duet
01:10:10.000                             : en:Bugs' Disguise Falls Apart
01:11:42.000                             : en:Operation Rabbit
01:13:16.000                             : en:Wile E. Coyote Tries to Cook Bugs
01:14:51.000                             : en:Wile E. Coyote Tries Again
01:16:04.000                             : en:Wile E. Coyote Pursues the Road Runner
01:19:49.000                             : en:Wile E. Coyote Sets Roadside Traps
01:23:16.000                             : en:Wile E. Coyote Works with Boulders
01:26:31.000                             : en:Wile E. Coyote Tries More Acme Products
01:29:36.000                             : en:Wile E. Coyote Buys Earthquake Pills
01:32:40.000                             : en:Wile E. Coyote Tries Catapults and Rockets
01:35:24.000                             : en:The Importance of Laughter
01:36:45.000                             : en:End Credits



[+] Дополнительная информация
• Исходник видео WEB-DL Amazon.



Скриншоты:
[+] Всего файлов в раздаче - 1:
Кролик.Багз.или.Дорожный.бегун.1979.WEB-DL.1080p.mkv6.37 GB

Текущая раздача:
ДатаКомментарии    РазмерПиры
2018-04-22 U Кролик Багз или Дорожный бегун / The Bugs Bunny Road Runner Movie (1979) WEB-DL 1080p | D 6.37 GB ↑ 36 ↓ 14

Показать еще раздачи по запросу кролик:
2018-06-16 U Кролик Питер / Peter Rabbit (2018) BDRip 1080p от Heisenberg & NNMClub | Лицензия 4.37 GB ↑ 62 ↓ 23
2018-05-06 U Кролик Питер / Peter Rabbit (2018) HDRip от MegaPeer | Лицензия 750.99 MB ↑ 170 ↓ 33
2018-05-06 U Кролик Питер / Peter Rabbit (2018) BDRip от MegaPeer | Лицензия 1.47 GB ↑ 151 ↓ 33
2018-05-06 U Кролик Питер / Peter Rabbit (2018) HDRip от Scarabey | Лицензия 1.45 GB ↑ 154 ↓ 32
2018-05-04 U Кролик Питер / Peter Rabbit (2018) BDRip-AVC от HELLYWOOD | Лицензия 2.18 GB ↑ 148 ↓ 40
2018-05-04 U Кролик Питер / Peter Rabbit (2018) BDRip от ExKinoRay | Лицензия 1.46 GB ↑ 28 ↓ 30
2018-05-04 U Кролик Питер / Peter Rabbit (2018) BDRip-AVC от HELLYWOOD | Лицензия 1.46 GB ↑ 84 ↓ 23

Отзывы
Зарегистрируйтесь чтобы добавить комментарий.
Обратная связь
Copyleft ©