↑↓Torrent.by
Поиск
Логин: Регистрация
Пароль: Восстановить пароль
Загрузка...

Экскурсии по Абхазии: Гагра, Пицунда, Новый Афон, Сухум, озеро Рица (2011) DVDRip-AVC от KORSAR

Скачать ekskursii-po-abhazii-gagra-picunda-novyy-afon-suhum-ozero-rica-2011-dvdrip-avc-ot-korsar.torrent
U Магнитная ссылка Размер: 1.15 GB Раздают: 146 Качают: 41 Добавлен: 2018-04-22 15:31:55
Экскурсии по Абхазии: Гагра, Пицунда, Новый Афон, Сухум, озеро Рица (2011) DVDRip-AVC от KORSAR

Название: Экскурсии по Абхазии: Гагра, Пицунда, Новый Афон, Сухум, озеро Рица
Год выхода: 2011
Жанр: Документальный
Режиссер: Неизвестен

О фильме: Современная Абхазия - это самобытная культура, в которой сочетаются современность и бережно хранимые традиции. Побывав в Абхазии, вы сможете познакомиться с национальной пищей и убранством абхазского дома. Абхазия - земля гостеприимных людей, гостеприимство здесь не просто форма вежливости, а освященная веками традиция. Столица Абхазии - Сухум - один из древнейших городов мира, ему почти 2600 лет. Путешествие по Абхазии оставит у вас неизгладимое впечатление.Город Гагра - самое теплое место на Кавказском Причерноморье. Пицунда - замечательный климатический курорт, расположенный вдоль моря, среди уникальной реликтовой сосновой рощи, целебные свойства которой ценятся с давних времен. Новый Афон - небольшой, но удивительно живописный город на побережье Черного моря. Древнейший христианский центр и место паломничества христиан. Главные достопримечательности: Храм Святого апостола Симона Кананита - уникальный памятник средневекового зодчества; Новоафонский Симоно-Канонитский православный мужской монастырь; знаменитая Новоафонская пещера, одна из самых крупнейших горизонтальных пещер планеты; Анакопийская крепость и др. Кому не известно чудо-озеро, жемчужина гор - Рица? О нем сложены легенды и песни. Рица - самое знаменитое озеро на Кавказе. Попасть сюда мечтает каждый.

Страна: Абхазия
Студия: Reagal Video
Продолжительность: 00:56:42
Перевод: Не требуется

Файл
Кодек: х264
Качество: DVDRip-AVC
Видео: 698x572@744x572 (4:3), 25 fps, MPEG-4 AVC ~2700 kbps avg, 0.271 bit/pixel
Аудио: AC3, 2 ch, 192 Кбит/с

Релиз:
[+] Инфо файл

Общее
Уникальный идентификатор         : 179285989545824580780350557779763288074 (0x86E139C01AE2E488A5DA20F3473A580A)
Полное имя                       : D:Экскурсии по Абхазии (2011) KORSAR.mkv
Формат                           : Matroska
Размер файла                     : 1,15 Гбайт
Продолжительность                : 56 м.
Общий поток                      : 2896 Кбит/сек
Дата кодирования                 : UTC 2018-02-23 04:02:49
Программа кодирования            : mkvmerge v7.8.0 ('River Man') 32bit built on Apr  3 2015 12:11:22
Библиотека кодирования           : libebml v1.3.1 + libmatroska v1.4.2

Видео
Идентификатор                    : 1
Формат                           : AVC
Формат/Информация                : Advanced Video Codec
Профиль формата                  : High@L4.1
Параметр CABAC формата           : Да
Параметр ReFrames формата        : 12 кадры
Идентификатор кодека             : V_MPEG4/ISO/AVC
Продолжительность                : 56 м.
Битрейт                          : 2700 Кбит/сек
Ширина                           : 698 пикс.
Высота                           : 572 пикс.
Соотношение сторон               : 4:3
Соотношение сторон в оригинале   : 4:3
Частота кадров                   : 25,000 кадр/сек
Цветовое пространство            : YUV
Подвыборка цветности             : 4:2:0
Битовая глубина                  : 8 бит
Тип развёртки                    : Прогрессивная
Бит/(Пиксели*Кадры)              : 0.271
Размер потока                    : 1,05 Гбайт (91%)
Библиотека кодирования           : x264 core 148 r2744kMod b97ae06
Настройки программы              : cabac=1 / ref=12 / deblock=1:-2:-2 / analyse=0x3:0x133 / me=umh / subme=10 / psy=1 / fade_compensate=0.00 / psy_rd=1.05:0.10 / mixed_ref=1 / me_range=32 / chroma_me=1 / trellis=2 / 8x8dct=1 / cqm=0 / deadzone=21,11 / fast_pskip=0 / chroma_qp_offset=-3 / threads=6 / lookahead_threads=1 / sliced_threads=0 / nr=0 / decimate=0 / interlaced=0 / bluray_compat=0 / constrained_intra=0 / bframes=11 / b_pyramid=2 / b_adapt=2 / b_bias=0 / direct=3 / weightb=1 / open_gop=0 / weightp=2 / keyint=250 / keyint_min=25 / scenecut=40 / intra_refresh=0 / rc=2pass / mbtree=0 / bitrate=2700 / ratetol=1.0 / qcomp=0.63 / qpmin=0 / qpmax=39 / qpstep=4 / cplxblur=20.0 / qblur=0.5 / ip_ratio=1.25 / pb_ratio=1.30 / aq=1:1.00
Язык                             : Russian
Основные цвета                   : BT.470-6 System B, BT.470-6 System G, BT.601-6 625, BT.1358 625, BT.1700 625 PAL, BT.1700 625 SECAM
Характеристики трансфера         : BT.470-6 System B, BT.470-6 System G
Коэффициенты матрицы             : BT.470-6 System B, BT.470-6 System G, BT.601-6 625, BT.1358 625, BT.1700 625 PAL, BT.1700 625 SECAM, IEC 61966-2-4 601

Аудио
Идентификатор                    : 2
Формат                           : AC-3
Формат/Информация                : Audio Coding 3
Расширение режима                : CM (complete main)
Идентификатор кодека             : A_AC3
Продолжительность                : 56 м.
Вид битрейта                     : Постоянный
Битрейт                          : 192 Кбит/сек
Канал(ы)                         : 2 канала(ов)
Расположение каналов             : Front: L R
Частота                          : 48,0 КГц
Битовая глубина                  : 16 бит
Метод сжатия                     : С потерями
Размер потока                    : 77,9 Мбайт (7%)
Язык                             : Russian



Скриншоты:
[+] Всего файлов в раздаче - 1:
Экскурсии по Абхазии (2011) KORSAR.mkv1.15 GB

Текущая раздача:
ДатаКомментарии    РазмерПиры
2018-04-22 U Экскурсии по Абхазии: Гагра, Пицунда, Новый Афон, Сухум, озеро Рица (2011) DVDRip-AVC от KORSAR 1.15 GB ↑ 146 ↓ 41

Похожие раздачи по запросу - экскурсии:
2016-12-17 U Путеводитель по Петербургу. Увлекательные экскурсии по Северной столице (2016) FB2 24.83 MB ↑ 618 ↓ 5

Отзывы
Зарегистрируйтесь чтобы добавить комментарий.
Обратная связь
Copyleft ©