↑↓Torrent.by
Поиск
Логин: Регистрация
Пароль: Восстановить пароль
Загрузка...

Жили-были (2017) WEB-DL 1080p | iTunes

Скачать zhili-byli-2017-web-dl-1080p-itunes.torrent
U Магнитная ссылка Размер: 3.01 GB Раздают: 323 Качают: 94 Добавлен: 2018-04-23 05:13:30
Жили-были (2017) WEB-DL 1080p | iTunes

Название: Жили-были
Год выхода: 2017
Жанр: Комедия
Режиссер: Эдуард Парри
В ролях: Федор Добронравов, Ирина Розанова, Роман Мадянов, Виктор Супрун, Владимир Капустин, Альбина Евтушевская,Алексей Ведерников, Ирина Сойкина, Владимир Карпов

О фильме:
Старинная деревня в русской глубинке. Из жителей только два одиноких немолодых мужчины и внезапно овдовевшая женщина. Один из друзей решает, что пора завязывать с одиночеством и собирается предложить вдове руку и сердце. Но второй мужчина в корне с этим не согласен и тоже претендует на вакантное место. Лучшие друзья объявляют друг другу войну.

Страна: Россия
Студия: Продюсерский центр Фёдора Добронравова
Продолжительность: 01:26:55
Перевод:
 • Не требуется | iTunes

Файл
Качество: WEB-DL 1080p
Формат: MKV
Кодек: MPEG-4 AVC
Видео: 1908x792 (2,40:1), 23,976 fps, MPEG-4 AVC ~ 4572 kbps avg, 0.126 bit/pixel
Аудио: AC3, 48 kHz, 6 ch, ~384.00 kbps avg | русский | iTunes  
Субтитры: Отсутствуют


[+] Инфо-файл
Общее
Уникальный идентификатор                 : 203649597361714514910761095962425719057 (0x99357C5B9000760CA7EA749C45167911)
Полное имя                               : ZHILI_BILI_WEB_DL_1080P.mkv
Формат                                   : Matroska
Версия формата                           : Version 2
Размер файла                             : 3,01 Гбайт
Продолжительность                        : 1 ч. 26 м.
Общий поток                              : 4958 Кбит/сек
Дата кодирования                         : UTC 2018-04-22 18:20:28
Программа кодирования                    : mkvmerge v8.3.0 ('Over the Horizon') 64bit
Библиотека кодирования                   : libebml v1.3.1 + libmatroska v1.4.2

Видео
Идентификатор                            : 1
Формат                                   : AVC
Формат/Информация                        : Advanced Video Codec
Профиль формата                          : High@L4
Настройки формата                        : CABAC / 5 Ref Frames
Параметр CABAC формата                   : Да
Параметр ReFrames формата                : 5 кадров
Идентификатор кодека                     : V_MPEG4/ISO/AVC
Продолжительность                        : 1 ч. 26 м.
Битрейт                                  : 4572 Кбит/сек
Ширина                                   : 1908 пикселей
Высота                                   : 792 пикселя
Соотношение сторон                       : 2,40:1
Режим частоты кадров                     : Постоянный
Частота кадров                           : 23,976 (24000/1001) кадра/сек
Цветовое пространство                    : YUV
Субдискретизация насыщенности            : 4:2:0
Битовая глубина                          : 8 бит
Тип развёртки                            : Прогрессивная
Бит/(Пиксели*Кадры)                      : 0.126
Размер потока                            : 2,78 Гбайт (92%)
Язык                                     : English
Default                                  : Да
Forced                                   : Нет
Цветовой диапазон                        : Limited
Основные цвета                           : BT.709
Характеристики трансфера                 : BT.709
Коэффициенты матрицы                     : BT.709

Аудио
Идентификатор                            : 2
Формат                                   : AC-3
Формат/Информация                        : Audio Coding 3
Идентификатор кодека                     : A_AC3
Продолжительность                        : 1 ч. 26 м.
Вид битрейта                             : Постоянный
Битрейт                                  : 384 Кбит/сек
Каналы                                   : 6 каналов
Расположение каналов                     : Front: L C R, Side: L R, LFE
Частота                                  : 48,0 КГц
Частота кадров                           : 31,250 кадров/сек (1536 SPF)
Битовая глубина                          : 16 бит
Метод сжатия                             : С потерями
Размер потока                            : 239 Мбайт (8%)
Язык                                     : Russian
Default                                  : Да
Forced                                   : Нет

Меню
00:00:00.000                             : en:1
00:02:05.000                             : en:2
00:15:01.000                             : en:3
00:26:13.000                             : en:4
00:36:41.000                             : en:5
00:46:28.000                             : en:6
00:58:21.000                             : en:7
01:08:40.000                             : en:8
01:16:26.000                             : en:9
01:24:40.000                             : en:10




Скриншоты:
[+] Всего файлов в раздаче - 1:
ZHILI_BILI_WEB_DL_1080P.mkv3.01 GB

Текущая раздача:
ДатаКомментарии    РазмерПиры
2018-04-23 U Жили-были (2017) WEB-DL 1080p | iTunes 3.01 GB ↑ 323 ↓ 94

Показать еще раздачи по запросу жили:
2018-05-12 U Жили-были (2017) WEB-DLRip-AVC от ExKinoRay | iTunes 1.36 GB ↑ 217 ↓ 37
2018-04-26 U Жили-были (2017) WEB-DLRip от Scarabey | iTunes 1.44 GB ↑ 199 ↓ 47
2018-04-25 U Жили-были (2017) WEB-DLRip-AVC от OlLanDGroup | iTunes 744.58 MB ↑ 69 ↓ 20
2018-04-25 U Жили-были (2017) WEB-DLRip от MegaPeer | iTunes 746.03 MB ↑ 81 ↓ 15
2018-04-24 U Жили-были (2017) WEB-DLRip от GeneralFilm | iTunes 745.12 MB ↑ 218 ↓ 59
2018-04-23 U Жили-были (2017) WEB-DLRip | iTunes 699.80 MB ↑ 409 ↓ 84
2018-04-23 U Жили-были (2017) WEB-DL 720p | iTunes 2.69 GB ↑ 176 ↓ 65

Отзывы
Зарегистрируйтесь чтобы добавить комментарий.
Обратная связь
Copyleft ©