↑↓Torrent.by
Поиск
Логин: Регистрация
Пароль: Восстановить пароль
Загрузка...

Конверт (2017) WEB-DLRip-AVC от ExKinoRay | iTunes

Скачать konvert-2017-web-dlrip-avc-ot-exkinoray-itunes.torrent
U Магнитная ссылка Размер: 1.07 GB Раздают: 178 Качают: 30 Добавлен: 2018-04-25 08:06:58
Конверт (2017) WEB-DLRip-AVC от ExKinoRay | iTunes

Название: Конверт
Год выпуска: 2017
Жанр: Триллер, ужасы, мистика
Режиссер: Владимир Марков
В ролях: Юлия Пересильд, Игорь Лизенгевич, Ольга Медынич, Сергей Барковский, Дмитрий Куличков, Алексей Кирсанов, Диана Енакаева, Варвара Бородина, Станислав Лесной, Вилен Бабичев

Описание: Москва. Наши дни. В архитектурную компанию по ошибке приходит странное письмо. Секретарь, заметив недоразумение, просит водителя Игоря доставить конверт по нужному адресу. С этого момента в его жизни начинают происходить необъяснимые вещи: злосчастный конверт как будто преследует героя, целенаправленно ведя его к таинственному адресату.

Страна: Россия
Студия: РБ Продакшн
Продолжительность: 01:14:04
Язык: Русский | iTunes

Файл
Формат: MKV
Качество: WEB-DLRip-AVC
Видео: MPEG-4 AVC, 1024x428 (2.40:1), 25.000 fps, 2530 Kbps, 0.154 bit/pixel
Аудио: 48 kHz, AC3, 5.1 ch, ~384 kbps avg - Rus

Релиз:

Автор релиза:


[+] MI
General
Unique ID                                : 176035452589075991112227932525128477814 (0x846F31E7AFC15702925F5BB5852A6C76)
Complete name                            : D:Konvert.2017.AVC.ExKinoRay.mkv
Format                                   : Matroska
Format version                           : Version 2
File size                                : 1.07 GiB
Duration                                 : 1 h 14 min
Overall bit rate                         : 2 071 kb/s
Movie name                               : Конверт 2017 from ExKinoRay
Encoded date                             : UTC 2018-04-24 17:27:43
Writing application                      : mkvmerge v5.6.0 ('Kenya Kane') built on May 27 2012 16:44:04
Writing library                          : libebml v1.2.3 + libmatroska v1.3.0

Video
ID                                       : 1
Format                                   : AVC
Format/Info                              : Advanced Video Codec
Format profile                           : High@L4.1
Format settings, CABAC                   : Yes
Format settings, ReFrames                : 10 frames
Codec ID                                 : V_MPEG4/ISO/AVC
Duration                                 : 1 h 14 min
Bit rate                                 : 1 686 kb/s
Width                                    : 1 024 pixels
Height                                   : 428 pixels
Display aspect ratio                     : 2.40:1
Frame rate mode                          : Constant
Frame rate                               : 25.000 FPS
Color space                              : YUV
Chroma subsampling                       : 4:2:0
Bit depth                                : 8 bits
Scan type                                : Progressive
Bits/(Pixel*Frame)                       : 0.154
Stream size                              : 872 MiB (79%)
Title                                    : Enigma
Writing library                          : x264 core 152 r2851 ba24899
Encoding settings                        : cabac=1 / ref=10 / deblock=1:-2:-2 / analyse=0x3:0x113 / me=umh / subme=10 / psy=1 / psy_rd=1.03:0.10 / mixed_ref=1 / me_range=32 / chroma_me=1 / trellis=2 / 8x8dct=1 / cqm=0 / deadzone=21,11 / fast_pskip=0 / chroma_qp_offset=-3 / threads=12 / lookahead_threads=3 / sliced_threads=0 / nr=0 / decimate=0 / interlaced=0 / bluray_compat=0 / constrained_intra=0 / bframes=10 / b_pyramid=2 / b_adapt=2 / b_bias=0 / direct=3 / weightb=1 / open_gop=0 / weightp=2 / keyint=250 / keyint_min=25 / scenecut=40 / intra_refresh=0 / rc_lookahead=40 / rc=2pass / mbtree=0 / bitrate=1686 / ratetol=1.0 / qcomp=0.60 / qpmin=0 / qpmax=51 / qpstep=4 / cplxblur=20.0 / qblur=0.5 / vbv_maxrate=50000 / vbv_bufsize=62500 / nal_hrd=none / filler=0 / ip_ratio=1.40 / pb_ratio=1.30 / aq=1:1.00
Language                                 : English
Default                                  : Yes
Forced                                   : No
Color range                              : Limited
Color primaries                          : BT.709
Transfer characteristics                 : BT.709
Matrix coefficients                      : BT.709

Audio
ID                                       : 2
Format                                   : AC-3
Format/Info                              : Audio Coding 3
Mode extension                           : CM (complete main)
Format settings, Endianness              : Big
Codec ID                                 : A_AC3
Duration                                 : 1 h 14 min
Bit rate mode                            : Constant
Bit rate                                 : 384 kb/s
Channel(s)                               : 6 channels
Channel positions                        : Front: L C R, Side: L R, LFE
Sampling rate                            : 48.0 kHz
Frame rate                               : 31.250 FPS (1536 spf)
Compression mode                         : Lossy
Stream size                              : 203 MiB (19%)
Language                                 : Russian
Default                                  : Yes
Forced                                   : No

Menu
00:00:00.000                             : en:Глава 1
00:06:44.520                             : en:Глава 2
00:13:00.800                             : en:Глава 3
00:19:07.960                             : en:Глава 4
00:25:44.680                             : en:Глава 5
00:30:35.720                             : en:Глава 6
00:36:46.240                             : en:Глава 7
00:41:02.280                             : en:Глава 8
00:47:11.920                             : en:Глава 9
00:54:14.200                             : en:Глава 10
00:59:45.040                             : en:Глава 11




Скриншоты:
[+] Всего файлов в раздаче - 1:
Konvert.2017.AVC.ExKinoRay.mkv1.07 GB

Отзывы
Зарегистрируйтесь чтобы добавить комментарий.
Обратная связь
Copyleft ©