↑↓Torrent.by
Поиск
Логин: Регистрация
Пароль: Восстановить пароль
Загрузка...

Жили-были (2017) WEB-DLRip-AVC от OlLanDGroup | iTunes

Скачать zhili-byli-2017-web-dlrip-avc-ot-ollandgroup-itunes.torrent
U Магнитная ссылка Размер: 744.58 MB Раздают: 62 Качают: 20 Добавлен: 2018-04-25 17:17:31
Жили-были (2017) WEB-DLRip-AVC от OlLanDGroup | iTunes

Жили-были

Год выпуска: 2017
Страна: Россия
Производство: Продюсерский центр Фёдора Добронравова
Жанр:  Комедия

Режиссёр: Эдуард Парри
В ролях: Федор Добронравов, Ирина Розанова, Роман Мадянов, Виктор Супрун, Владимир Капустин, Альбина Евтушевская,Алексей Ведерников, Ирина Сойкина, Владимир Карпов

Перевод: Не требуется | iTunes
Субтитры: Нет
Реклама: Отсутствует

Описание: Старинная деревня в русской глубинке. Из жителей только два одиноких немолодых мужчины и внезапно овдовевшая женщина. Один из друзей решает, что пора завязывать с одиночеством и собирается предложить вдове руку и сердце. Но второй мужчина в корне с этим не согласен и тоже претендует на вакантное место. Лучшие друзья объявляют друг другу войну.

Качество: WEB-DLRip-AVC
Продолжительность: 01:26:55

Формат: MKV
Видео кодек: MPEG-4 AVC
Аудио кодек: AС3
Видео: 720x300 (2,40:1), 23,976 fps, x264 ~1005 kbps avg, 0.194 bit/pixel
Аудио: 48 kHz, Audio Coding 3, 2.0 Front: L R, ~192 kbps avg  | iTunes

Дата премьеры (РФ): 15 марта 2018, «Reflexion Films»

Релиз: Rip by:


[+] MediaInfo


Общее
Уникальный идентификатор                 : 110412435822764742261250265050093502511 (0x5310A9612202654C4F258A29CB38C02F)
Полное имя                               : D:ВидеоЖили были.2018.WEB-DLRip(AVC).OlLanDGroup.mkv
Формат                                   : Matroska
Версия формата                           : Version 4 / Version 2
Размер файла                             : 745 Мбайт
Продолжительность                        : 1 ч. 26 м.
Общий поток                              : 1198 Кбит/сек
Название фильма                          : Жили были.2018.WEB-DLRip(AVC).Rip by Vovan366
Дата кодирования                         : UTC 2018-04-24 15:23:33
Программа кодирования                    : mkvmerge v22.0.0 ('At The End Of The World') 64-bit
Библиотека кодирования                   : libebml v1.3.5 + libmatroska v1.4.8
DURATION                                 : 01:26:55.040000000
NUMBER_OF_FRAMES                         : 162970
NUMBER_OF_BYTES                          : 125160960
_STATISTICS_WRITING_APP                  : mkvmerge v22.0.0 ('At The End Of The World') 64-bit
_STATISTICS_WRITING_DATE_UTC             : 2018-04-24 15:23:33
_STATISTICS_TAGS                         : BPS DURATION NUMBER_OF_FRAMES NUMBER_OF_BYTES
Attachment                               : Yes

Видео
Идентификатор                            : 1
Формат                                   : AVC
Формат/Информация                        : Advanced Video Codec
Профиль формата                          : High@L4.1
Параметр CABAC формата                   : Да
Параметр ReFrames формата                : 9 кадров
Идентификатор кодека                     : V_MPEG4/ISO/AVC
Продолжительность                        : 1 ч. 26 м.
Битрейт                                  : 1005 Кбит/сек
Ширина                                   : 720 пикселей
Высота                                   : 300 пикселей
Соотношение сторон                       : 2,40:1
Режим частоты кадров                     : Постоянный
Частота кадров                           : 23,976 кадра/сек
Цветовое пространство                    : YUV
Субдискретизация насыщенности            : 4:2:0
Битовая глубина                          : 8 бит
Тип развёртки                            : Прогрессивная
Бит/(Пиксели*Кадры)                      : 0.194
Размер потока                            : 610 Мбайт (82%)
Заголовок                                : Жили были.2018.WEB-DLRip(AVC).OlLanDGroup
Библиотека кодирования                   : x264 core 146 r2538 121396c
Настройки программы                      : cabac=1 / ref=9 / deblock=1:-3:-3 / analyse=0x3:0x133 / me=umh / subme=10 / psy=1 / psy_rd=1.00:0.00 / mixed_ref=1 / me_range=32 / chroma_me=1 / trellis=2 / 8x8dct=1 / cqm=0 / deadzone=21,11 / fast_pskip=0 / chroma_qp_offset=-2 / threads=6 / lookahead_threads=1 / sliced_threads=0 / nr=0 / decimate=0 / interlaced=0 / bluray_compat=0 / constrained_intra=0 / bframes=10 / b_pyramid=2 / b_adapt=1 / b_bias=0 / direct=3 / weightb=1 / open_gop=0 / weightp=2 / keyint=240 / keyint_min=23 / scenecut=40 / intra_refresh=0 / rc_lookahead=40 / rc=2pass / mbtree=0 / bitrate=1005 / ratetol=1.0 / qcomp=0.60 / qpmin=0 / qpmax=69 / qpstep=4 / cplxblur=20.0 / qblur=0.5 / vbv_maxrate=50000 / vbv_bufsize=52500 / nal_hrd=none / filler=0 / ip_ratio=1.40 / pb_ratio=1.30 / aq=1:1.00
Default                                  : Да
Forced                                   : Нет

Аудио
Идентификатор                            : 2
Формат                                   : AC-3
Формат/Информация                        : Audio Coding 3
Расширение режима                        : CM (complete main)
Параметр Endianness формата              : Big
Идентификатор кодека                     : A_AC3
Продолжительность                        : 1 ч. 26 м.
Вид битрейта                             : Постоянный
Битрейт                                  : 192 Кбит/сек
Каналы                                   : 2 канала
Расположение каналов                     : Front: L R
Частота                                  : 48,0 КГц
Битовая глубина                          : 16 бит
Метод сжатия                             : С потерями
Размер потока                            : 119 Мбайт (16%)
Заголовок                                : iTunes
Язык                                     : Russian
Default                                  : Да
Forced                                   : Нет

Меню
00:00:00.000                             : en:1
00:02:05.000                             : en:2
00:15:01.000                             : en:3
00:26:13.000                             : en:4
00:36:41.000                             : en:5
00:46:28.000                             : en:6
00:58:21.000                             : en:7
01:08:40.000                             : en:8
01:16:26.000                             : en:9
01:24:40.000                             : en:10




Скриншоты:
[+] Всего файлов в раздаче - 1:
Жили были.2018.WEB-DLRip(AVC).OlLanDGroup.mkv744.58 MB

Текущая раздача:
ДатаКомментарии    РазмерПиры
2018-04-25 U Жили-были (2017) WEB-DLRip-AVC от OlLanDGroup | iTunes 744.58 MB ↑ 62 ↓ 20

Показать еще раздачи по запросу жили:
2018-05-12 U Жили-были (2017) WEB-DLRip-AVC от ExKinoRay | iTunes 1.36 GB ↑ 79 ↓ 29
2018-04-26 U Жили-были (2017) WEB-DLRip от Scarabey | iTunes 1.44 GB ↑ 96 ↓ 42
2018-04-25 U Жили-были (2017) WEB-DLRip от MegaPeer | iTunes 746.03 MB ↑ 65 ↓ 13
2018-04-24 U Жили-были (2017) WEB-DLRip от GeneralFilm | iTunes 745.12 MB ↑ 206 ↓ 59
2018-04-23 U Жили-были (2017) WEB-DLRip | iTunes 699.80 MB ↑ 311 ↓ 84
2018-04-23 U Жили-были (2017) WEB-DL 720p | iTunes 2.69 GB ↑ 94 ↓ 63
2018-04-23 U Жили-были (2017) WEB-DL 1080p | iTunes 3.01 GB ↑ 264 ↓ 90

Отзывы
Зарегистрируйтесь чтобы добавить комментарий.
Обратная связь
Copyleft ©