↑↓Torrent.by
Поиск
Логин: Регистрация
Пароль: Восстановить пароль
Загрузка...

Кролик Питер / Peter Rabbit (2018) BDRip 720p от ExKinoRay | iTunes

Скачать krolik-piter-peter-rabbit-2018-bdrip-720p-ot-exkinoray-itunes.torrent
U Магнитная ссылка Размер: 3.88 GB Раздают: 259 Качают: 107 Добавлен: 2018-04-26 00:03:55
Кролик Питер / Peter Rabbit (2018) BDRip 720p от ExKinoRay | iTunes

Название: Кролик Питер
Оригинальное название: Peter Rabbit
Год выхода: 2018
Жанр: Мультфильм, фэнтези, комедия, приключения, семейный, полнометражный
Режиссер: Уилл Глак
В ролях: Джеймс Корден, Файсаль Баззи, Донал Глисон, Сиа, Колин Муди, Сэм Нилл, Марго Робби, Элизабет Дебики, Дэйзи Ридли, Роуз Бирн

О фильме: Фильм о приключениях маленького и непоседливого крольчонка по имени Питер, который хочет пробраться в огород к грозному фермеру и вдоволь полакомиться там фруктами и овощами.

Страна: США
Студия: Sony Pictures Animation
Продолжительность: 01:34:42
Перевод: Дублированный | iTunes

Качество: BDRip 720p
Видео: MPEG-4 AVC, 1280x536, 3978 Kbit/s, 23.976 fps
Звук:
Аудио #01: 48 kHz, AC3, 5.1, 384 Kbps | iTunes | RUS |
Аудио #02: 48 kHz, DTS, 5.1, 1510 Kbps | Оригинал |  ENG |
Субтитры: Русские (full), английские

Релиз: Автор релиза:


[+] MI
General
Unique ID                   : 208517035672689053687936726507654725839 (0x9CDEEB983C74745BB69BFC8911EFC0CF)
Complete name               : C:Video111Peter.Rabbit.2018.D.BDRip.720p.ExKinoRay.mkv
Format                      : Matroska
Format version              : Version 4 / Version 2
File size                   : 3.88 GiB
Duration                    : 1 h 34 min
Overall bit rate            : 5 872 kb/s
Movie name                  : Peter Rabbit 2018 from ExKinoRay
Encoded date                : UTC 2018-04-25 19:11:22
Writing application         : mkvmerge v7.3.0 ('Nouages') 64bit built on Oct 22 2014 18:53:34
Writing library             : libebml v1.3.0 + libmatroska v1.4.1

Video
ID                          : 1
Format                      : AVC
Format/Info                 : Advanced Video Codec
Format profile              : High@L4.1
Format settings             : CABAC / 12 Ref Frames
Format settings, CABAC      : Yes
Format settings, ReFrames   : 12 frames
Codec ID                    : V_MPEG4/ISO/AVC
Duration                    : 1 h 34 min
Bit rate                    : 3 976 kb/s
Width                       : 1 280 pixels
Height                      : 536 pixels
Display aspect ratio        : 2.40:1
Frame rate mode             : Constant
Frame rate                  : 23.976 (24000/1001) FPS
Color space                 : YUV
Chroma subsampling          : 4:2:0
Bit depth                   : 8 bits
Scan type                   : Progressive
Bits/(Pixel*Frame)          : 0.242
Stream size                 : 2.63 GiB (68%)
Writing library             : x264 core 142 r2431+42 c69a006 tMod [8-bit@4:2:0 X86_64]
Encoding settings           : cabac=1 / ref=12 / deblock=1:-3:-3 / analyse=0x3:0x113 / me=umh / subme=10 / psy=1 / fade_compensate=0.00 / psy_rd=1.00:0.05 / mixed_ref=1 / me_range=32 / chroma_me=1 / trellis=2 / 8x8dct=1 / cqm=0 / deadzone=21,11 / fast_pskip=0 / chroma_qp_offset=-2 / threads=48 / lookahead_threads=4 / sliced_threads=0 / nr=0 / decimate=1 / interlaced=0 / bluray_compat=0 / constrained_intra=0 / fgo=0 / bframes=8 / b_pyramid=2 / b_adapt=2 / b_bias=0 / direct=3 / weightb=1 / open_gop=0 / weightp=2 / keyint=250 / keyint_min=23 / scenecut=40 / intra_refresh=0 / rc=crf / mbtree=0 / crf=17.0000 / qcomp=0.60 / qpmin=0:0:0 / qpmax=69:69:69 / qpstep=4 / ip_ratio=1.40 / pb_ratio=1.30 / aq=3:0.80 / aq-sensitivity=10.00 / aq-factor=1.00:1.00:1.00 / aq2=0 / aq3=0
Language                    : English
Default                     : Yes
Forced                      : No
Color range                 : Limited
Matrix coefficients         : BT.709

Audio #1
ID                          : 2
Format                      : AC-3
Format/Info                 : Audio Coding 3
Codec ID                    : A_AC3
Duration                    : 1 h 34 min
Bit rate mode               : Constant
Bit rate                    : 384 kb/s
Channel(s)                  : 6 channels
Channel positions           : Front: L C R, Side: L R, LFE
Sampling rate               : 48.0 kHz
Frame rate                  : 31.250 FPS (1536 SPF)
Bit depth                   : 16 bits
Compression mode            : Lossy
Stream size                 : 260 MiB (7%)
Title                       : iTunes
Language                    : Russian
Service kind                : Complete Main
Default                     : Yes
Forced                      : Yes

Audio #2
ID                          : 3
Format                      : DTS
Format/Info                 : Digital Theater Systems
Codec ID                    : A_DTS
Duration                    : 1 h 34 min
Bit rate mode               : Constant
Bit rate                    : 1 509 kb/s
Channel(s)                  : 6 channels
Channel positions           : Front: L C R, Side: L R, LFE
Sampling rate               : 48.0 kHz
Frame rate                  : 93.750 FPS (512 SPF)
Bit depth                   : 16 bits
Compression mode            : Lossy
Stream size                 : 1 022 MiB (26%)
Title                       : Original
Language                    : English
Default                     : No
Forced                      : No

Text #1
ID                          : 4
Format                      : UTF-8
Codec ID                    : S_TEXT/UTF8
Codec ID/Info               : UTF-8 Plain Text
Duration                    : 1 h 33 min
Bit rate                    : 111 b/s
Count of elements           : 1556
Stream size                 : 76.4 KiB (0%)
Title                       : Full
Language                    : Russian
Default                     : No
Forced                      : No

Text #2
ID                          : 5
Format                      : UTF-8
Codec ID                    : S_TEXT/UTF8
Codec ID/Info               : UTF-8 Plain Text
Duration                    : 1 h 33 min
Bit rate                    : 71 b/s
Count of elements           : 1726
Stream size                 : 49.5 KiB (0%)
Title                       : Full
Language                    : English
Default                     : No
Forced                      : No

Menu
00:00:00.000                : en:00:00:00.000
00:04:04.786                : en:00:04:04.786
00:08:26.297                : en:00:08:26.297
00:15:11.702                : en:00:15:11.702
00:21:00.634                : en:00:21:00.634
00:25:43.584                : en:00:25:43.584
00:30:50.265                : en:00:30:50.265
00:38:00.862                : en:00:38:00.862
00:44:37.341                : en:00:44:37.341
00:50:07.671                : en:00:50:07.671
00:56:21.295                : en:00:56:21.295
01:01:07.581                : en:01:01:07.581
01:07:02.560                : en:01:07:02.560
01:10:30.810                : en:01:10:30.810
01:14:35.137                : en:01:14:35.137
01:21:51.990                : en:01:21:51.990



Скриншоты:
[+] Всего файлов в раздаче - 1:
Peter.Rabbit.2018.D.BDRip.720p.ExKinoRay.mkv3.88 GB

Текущая раздача:
ДатаКомментарии    РазмерПиры
2018-04-26 U Кролик Питер / Peter Rabbit (2018) BDRip 720p от ExKinoRay | iTunes 3.88 GB ↑ 259 ↓ 107

Показать еще раздачи по запросу кролик:
2018-06-16 U Кролик Питер / Peter Rabbit (2018) BDRip 1080p от Heisenberg & NNMClub | Лицензия 4.37 GB ↑ 62 ↓ 23
2018-05-06 U Кролик Питер / Peter Rabbit (2018) HDRip от MegaPeer | Лицензия 750.99 MB ↑ 170 ↓ 33
2018-05-06 U Кролик Питер / Peter Rabbit (2018) BDRip от MegaPeer | Лицензия 1.47 GB ↑ 151 ↓ 33
2018-05-06 U Кролик Питер / Peter Rabbit (2018) HDRip от Scarabey | Лицензия 1.45 GB ↑ 154 ↓ 32
2018-05-04 U Кролик Питер / Peter Rabbit (2018) BDRip-AVC от HELLYWOOD | Лицензия 2.18 GB ↑ 148 ↓ 40
2018-05-04 U Кролик Питер / Peter Rabbit (2018) BDRip от ExKinoRay | Лицензия 1.46 GB ↑ 28 ↓ 30
2018-05-04 U Кролик Питер / Peter Rabbit (2018) BDRip-AVC от HELLYWOOD | Лицензия 1.46 GB ↑ 84 ↓ 23

Отзывы
Зарегистрируйтесь чтобы добавить комментарий.
Обратная связь
Copyleft ©