↑↓Torrent.by
Поиск
Логин: Регистрация
Пароль: Восстановить пароль
Загрузка...

Бэтмен-ниндзя / Batman Ninja (2018) WEB-DL 720p | L1

Скачать betmen-nindzya-batman-ninja-2018-web-dl-720p-l1.torrent
U Магнитная ссылка Размер: 2.84 GB Раздают: 139 Качают: 69 Добавлен: 2018-04-26 00:04:00
Бэтмен-ниндзя / Batman Ninja (2018) WEB-DL 720p | L1

Название: Бэтмен-ниндзя
Оригинальное название: Batman Ninja
Год выхода: 2018
Жанр: Мультфильм, аниме, боевик
Режиссер: Эрик Дзюнпэй Мидзусаки
В ролях: Роджер Крэйг Смит, Тони Хейл, Тара Стронг, Том Кенни, Грей ДеЛайл, Уилл Фридел, Эрик Бауза

О фильме:
Бэтмэн много раз приходил на помощь своим горожанам, еще больше он спасал город от всяких врагов и напастей, ведь он и есть тот герой, который борется с противниками и врагами всех мастей. Люди любят и уважают своего спасителя и защитника, теперь они могут не беспокоиться и жить спокойной и мирной жизнью, они уверены, что в нужный момент Бэтмен всегда будут рядом. Однако злодеи творят свои злодеяния не только в одном городе, они появляются во всех уголках планеты, но отважный герой всегда успевает прийти на помощь, независимо от расстояния.Однажды Бэтмен получает сообщение, что неизвестные враги появились в Японии, и теперь держат все население страны в страхе. Его срочно просят приехать и оказать людям помощь. На месте Бэтмен знакомится с ниндзя, который обещает ему ознакомить его со своей страной и помогать в преодолении врага. Герои отправляются на поиски противника, но коварный враг не заставляет искать себя долго, он уже сам вышел на тропу войны. Это Джокер, который хочет захватить Японию и стать его императором, но и не таких врагов одолевал Бэтмен, а теперь рядом с ним такой же мужественный и героический ниндзя, вместе они обязательно уничтожат любого врага.

Страна: Япония, США
Студия: DC Comics, DC Entertainment, Kamikaze Douga
Продолжительность: 01:25:14
Перевод: Любительский одноголосый закадровый [Animedub]

Файл
Кодек: x.264
Качество: WEB-DL 720p
Видео: MPEG-4 AVC, 1280x720, ~3994 Kбит/с, 23.976 кадр/с
Звук:
Аудио #1: Русский ( АС3, 2ch, 384 Кбит/с, 48.0 KHz) Любительский (одноголосый закадровый)  Animedub
Аудио #2: Английский ( АС3, 6 ch, 384 Кбит/с, 48.0 KHz)
Субтитры: английские

Трейлер




[+] MediaInfo
Источник: Batman.Ninja.2018.720p.WEB-DL.DD5.1.H264-FGT
General
Unique ID                      : 239605690914685166395336537051508626042 (0xB44260A3B270B1A0B9A74D6A90F9D27A)
Complete name                  : Batman.Ninja.2018.WEB-DLRip.720p.mkv
Format                         : Matroska
Format version                 : Version 4 / Version 2
File size                      : 2.84 GiB
Duration                       : 1 h 25 min
Overall bit rate               : 4 764 kb/s
Encoded date                   : UTC 2018-04-25 10:40:48
Writing application            : mkvmerge v7.1.0 ('Good Love') 64bit built on Jul 27 2014 13:06:55
Writing library                : libebml v1.3.0 + libmatroska v1.4.1

Video
ID                             : 1
Format                         : AVC
Format/Info                    : Advanced Video Codec
Format profile                 : High@L3.1
Format settings                : 2 Ref Frames
Format settings, CABAC         : No
Format settings, ReFrames      : 2 frames
Codec ID                       : V_MPEG4/ISO/AVC
Duration                       : 1 h 25 min
Bit rate                       : 3 994 kb/s
Width                          : 1 280 pixels
Height                         : 720 pixels
Display aspect ratio           : 16:9
Frame rate mode                : Constant
Frame rate                     : 23.976 (24000/1001) FPS
Color space                    : YUV
Chroma subsampling             : 4:2:0
Bit depth                      : 8 bits
Scan type                      : Progressive
Bits/(Pixel*Frame)             : 0.181
Stream size                    : 2.38 GiB (84%)
Language                       : English
Default                        : Yes
Forced                         : No
Color range                    : Limited
Color primaries                : BT.709
Transfer characteristics       : BT.709
Matrix coefficients            : BT.709

Audio #1
ID                             : 2
Format                         : AC-3
Format/Info                    : Audio Coding 3
Codec ID                       : A_AC3
Duration                       : 1 h 25 min
Bit rate mode                  : Constant
Bit rate                       : 384 kb/s
Channel(s)                     : 2 channels
Channel positions              : Front: L R
Sampling rate                  : 48.0 kHz
Frame rate                     : 31.250 FPS (1536 SPF)
Bit depth                      : 16 bits
Compression mode               : Lossy
Stream size                    : 234 MiB (8%)
Title                          : Animedub
Language                       : Russian
Service kind                   : Complete Main
Default                        : Yes
Forced                         : No

Audio #2
ID                             : 3
Format                         : AC-3
Format/Info                    : Audio Coding 3
Codec ID                       : A_AC3
Duration                       : 1 h 25 min
Bit rate mode                  : Constant
Bit rate                       : 384 kb/s
Channel(s)                     : 6 channels
Channel positions              : Front: L C R, Side: L R, LFE
Sampling rate                  : 48.0 kHz
Frame rate                     : 31.250 FPS (1536 SPF)
Bit depth                      : 16 bits
Compression mode               : Lossy
Stream size                    : 234 MiB (8%)
Language                       : English
Service kind                   : Complete Main
Default                        : No
Forced                         : No

Text
ID                             : 4
Format                         : UTF-8
Codec ID                       : S_TEXT/UTF8
Codec ID/Info                  : UTF-8 Plain Text
Duration                       : 1 h 21 min
Bit rate                       : 46 b/s
Count of elements              : 857
Stream size                    : 28.1 KiB (0%)
Language                       : English
Default                        : No
Forced                         : No



Скриншоты:
[+] Всего файлов в раздаче - 1:
Batman.Ninja.2018.WEB-DLRip.720p.mkv2.84 GB

Текущая раздача:
ДатаКомментарии    РазмерПиры
2018-04-26 U Бэтмен-ниндзя / Batman Ninja (2018) WEB-DL 720p | L1 2.84 GB ↑ 139 ↓ 69

Показать еще раздачи по запросу бэтмен:
2018-06-20 U Бэтмен: Убийственная шутка / Batman: The Killing Joke (2016) BDRip от ExKinoRay | D 1.46 GB ↑ 67 ↓ 12
2018-04-30 U Бэтмен-ниндзя / Batman Ninja (2018) WEB-DLRip 720p | Flarrow Films 3.22 GB ↑ 91 ↓ 29
2018-04-26 U Бэтмен-ниндзя / Batman Ninja (2018) BDRip 1080p | L1 6.76 GB ↑ 92 ↓ 55
2018-04-14 U Бэтмен: Готэм в газовом свете / Batman: Gotham by Gaslight (2018) HDRip | Jaskier 1.37 GB ↑ 118 ↓ 22
2018-02-10 U Бэтмен: Готэм в газовом свете / Batman: Gotham by Gaslight (2018) WEBRip от Portablius | Flarrow Films 697.62 MB ↑ 100 ↓ 24
2018-02-05 U Бэтмен: Готэм в газовом свете / Batman: Gotham by Gaslight (2018) BDRip 720p от potroks | L 2.06 GB ↑ 123 ↓ 47
2018-02-05 U Бэтмен: Готэм в газовом свете / Batman: Gotham by Gaslight (2018) WEBRip 720p | Flarrow Films 2.39 GB ↑ 392 ↓ 147

Отзывы
Зарегистрируйтесь чтобы добавить комментарий.
Обратная связь
Copyleft ©