↑↓Torrent.by
Поиск
Логин: Регистрация
Пароль: Восстановить пароль
Загрузка...

Величайший шоумен / The Greatest Showman (2017) BDRip 1080p от ExKinoRay | Лицензия

Скачать velichayshiy-shoumen-the-greatest-showman-2017-bdrip-1080p-ot-exkinoray-licenziya.torrent
U Магнитная ссылка Размер: 8.05 GB Раздают: 53 Качают: 21 Добавлен: 2018-04-26 07:22:01
Величайший шоумен / The Greatest Showman (2017) BDRip 1080p от ExKinoRay | Лицензия

Название: Величайший шоумен
Оригинальное название: The Greatest Showman
Год выхода: 2017
Жанр: Драма, биография, мюзикл
Режиссер: Майкл Грэйси
В ролях: Хью Джекман, Зак Эфрон, Мишель Уильямс, Ребекка Фергюсон (II), Зендея, Кила Сеттл, Яхья Абдул-Матин II, Остин Джонсон, Эллис Рубин, Скайлар Данн

О фильме: Финеас Тейлор Барнум всегда мечтал войти в историю, но все его занятия не приносили ему удовольствия. И когда, казалось, весь мир обернулся против него, он решает пойти вслед за своей мечтой. Барнум создает завораживающее представление-сенсацию, которое стало рождением мирового шоу-бизнеса.

Страна: США
Студия: TSG Entertainment
Продолжительность: 01:44:49
Перевод: Дублированный | Лицензия

Качество: BDRip 1080p
Видео: MPEG-4 AVC, 1920x800, 8689 Kbit/s, 23.976 fps
Звук:
Аудио #01: 48 kHz, DTS, 5.1, 768 Kbps | Лицензия | RUS |
Аудио #02: 48 kHz, AC3, 5.1, 448 Kbps | Лицензия | RUS |
Аудио #03: 48 kHz, AC3, 5.1, 448 Kbps | Лицензия | UKR |
Аудио #04: 48 kHz, AC3, 5.1, 640 Kbps | Оригинал |  ENG |
Субтитры: Русские (forced, full), украинские (forced, full), английские

Релиз: Автор релиза:


[+] MI
General
Unique ID                   : 205728375183294223578165510152658693892 (0x9AC5D8046D8869BB8E93AE6CBB192F04)
Complete name               : C:Video111The.Greatest.Showman.2017.Lic.BDRip.1080p.ExKinoRay.mkv
Format                      : Matroska
Format version              : Version 4 / Version 2
File size                   : 8.05 GiB
Duration                    : 1 h 44 min
Overall bit rate            : 11.0 Mb/s
Movie name                  : The Greatest Showman 2017 from ExKinoRay
Encoded date                : UTC 2018-04-25 12:47:55
Writing application         : mkvmerge v7.3.0 ('Nouages') 64bit built on Oct 22 2014 18:53:34
Writing library             : libebml v1.3.0 + libmatroska v1.4.1

Video
ID                          : 1
Format                      : AVC
Format/Info                 : Advanced Video Codec
Format profile              : High@L4.1
Format settings             : CABAC / 5 Ref Frames
Format settings, CABAC      : Yes
Format settings, ReFrames   : 5 frames
Codec ID                    : V_MPEG4/ISO/AVC
Duration                    : 1 h 44 min
Bit rate                    : 8 689 kb/s
Width                       : 1 920 pixels
Height                      : 800 pixels
Display aspect ratio        : 2.40:1
Frame rate mode             : Constant
Frame rate                  : 23.976 (24000/1001) FPS
Color space                 : YUV
Chroma subsampling          : 4:2:0
Bit depth                   : 8 bits
Scan type                   : Progressive
Bits/(Pixel*Frame)          : 0.236
Stream size                 : 6.36 GiB (79%)
Writing library             : x264 core 148 r2705 3f5ed56
Encoding settings           : cabac=1 / ref=5 / deblock=1:-2:-2 / analyse=0x3:0x133 / me=umh / subme=11 / psy=1 / psy_rd=1.05:0.05 / mixed_ref=1 / me_range=48 / chroma_me=1 / trellis=2 / 8x8dct=1 / cqm=0 / deadzone=21,11 / fast_pskip=0 / chroma_qp_offset=-3 / threads=24 / lookahead_threads=6 / sliced_threads=0 / nr=0 / decimate=0 / interlaced=0 / bluray_compat=0 / constrained_intra=0 / bframes=10 / b_pyramid=2 / b_adapt=2 / b_bias=0 / direct=3 / weightb=1 / open_gop=0 / weightp=2 / keyint=240 / keyint_min=23 / scenecut=40 / intra_refresh=0 / rc_lookahead=50 / rc=2pass / mbtree=0 / bitrate=8689 / ratetol=1.0 / qcomp=0.60 / qpmin=0 / qpmax=51 / qpstep=4 / cplxblur=20.0 / qblur=0.5 / vbv_maxrate=50000 / vbv_bufsize=62500 / nal_hrd=none / filler=0 / ip_ratio=1.40 / pb_ratio=1.30 / aq=3:0.80
Language                    : English
Default                     : Yes
Forced                      : No

Audio #1
ID                          : 2
Format                      : DTS
Format/Info                 : Digital Theater Systems
Codec ID                    : A_DTS
Duration                    : 1 h 44 min
Bit rate mode               : Constant
Bit rate                    : 768 kb/s
Channel(s)                  : 6 channels
Channel positions           : Front: L C R, Side: L R, LFE
Sampling rate               : 48.0 kHz
Frame rate                  : 93.750 FPS (512 SPF)
Bit depth                   : 24 bits
Compression mode            : Lossy
Stream size                 : 576 MiB (7%)
Title                       : Dub [License]
Language                    : Russian
Default                     : Yes
Forced                      : Yes

Audio #2
ID                          : 3
Format                      : AC-3
Format/Info                 : Audio Coding 3
Codec ID                    : A_AC3
Duration                    : 1 h 44 min
Bit rate mode               : Constant
Bit rate                    : 448 kb/s
Channel(s)                  : 6 channels
Channel positions           : Front: L C R, Side: L R, LFE
Sampling rate               : 48.0 kHz
Frame rate                  : 31.250 FPS (1536 SPF)
Bit depth                   : 16 bits
Compression mode            : Lossy
Stream size                 : 336 MiB (4%)
Title                       : Dub [License]
Language                    : Russian
Service kind                : Complete Main
Default                     : No
Forced                      : No

Audio #3
ID                          : 4
Format                      : AC-3
Format/Info                 : Audio Coding 3
Codec ID                    : A_AC3
Duration                    : 1 h 44 min
Bit rate mode               : Constant
Bit rate                    : 448 kb/s
Channel(s)                  : 6 channels
Channel positions           : Front: L C R, Side: L R, LFE
Sampling rate               : 48.0 kHz
Frame rate                  : 31.250 FPS (1536 SPF)
Bit depth                   : 16 bits
Compression mode            : Lossy
Stream size                 : 336 MiB (4%)
Title                       : Dub [License]
Language                    : Ukrainian
Service kind                : Complete Main
Default                     : No
Forced                      : No

Audio #4
ID                          : 5
Format                      : AC-3
Format/Info                 : Audio Coding 3
Codec ID                    : A_AC3
Duration                    : 1 h 44 min
Bit rate mode               : Constant
Bit rate                    : 640 kb/s
Channel(s)                  : 6 channels
Channel positions           : Front: L C R, Side: L R, LFE
Sampling rate               : 48.0 kHz
Frame rate                  : 31.250 FPS (1536 SPF)
Bit depth                   : 16 bits
Compression mode            : Lossy
Stream size                 : 480 MiB (6%)
Title                       : Original
Language                    : English
Service kind                : Complete Main
Default                     : No
Forced                      : No

Text #1
ID                          : 6
Format                      : UTF-8
Codec ID                    : S_TEXT/UTF8
Codec ID/Info               : UTF-8 Plain Text
Duration                    : 1 h 36 min
Bit rate                    : 39 b/s
Count of elements           : 474
Stream size                 : 27.6 KiB (0%)
Title                       : Forced
Language                    : Russian
Default                     : Yes
Forced                      : Yes

Text #2
ID                          : 7
Format                      : UTF-8
Codec ID                    : S_TEXT/UTF8
Codec ID/Info               : UTF-8 Plain Text
Duration                    : 1 h 43 min
Bit rate                    : 92 b/s
Count of elements           : 1388
Stream size                 : 70.4 KiB (0%)
Title                       : Full
Language                    : Russian
Default                     : No
Forced                      : No

Text #3
ID                          : 8
Format                      : UTF-8
Codec ID                    : S_TEXT/UTF8
Codec ID/Info               : UTF-8 Plain Text
Duration                    : 1 h 36 min
Bit rate                    : 44 b/s
Count of elements           : 559
Stream size                 : 31.6 KiB (0%)
Title                       : Forced
Language                    : Ukrainian
Default                     : No
Forced                      : No

Text #4
ID                          : 9
Format                      : UTF-8
Codec ID                    : S_TEXT/UTF8
Codec ID/Info               : UTF-8 Plain Text
Duration                    : 1 h 43 min
Bit rate                    : 98 b/s
Count of elements           : 1488
Stream size                 : 75.2 KiB (0%)
Title                       : Full
Language                    : Ukrainian
Default                     : No
Forced                      : No

Text #5
ID                          : 10
Format                      : UTF-8
Codec ID                    : S_TEXT/UTF8
Codec ID/Info               : UTF-8 Plain Text
Duration                    : 1 h 36 min
Bit rate                    : 77 b/s
Count of elements           : 1335
Stream size                 : 54.5 KiB (0%)
Title                       : Full
Language                    : English
Default                     : No
Forced                      : No

Text #6
ID                          : 11
Format                      : UTF-8
Codec ID                    : S_TEXT/UTF8
Codec ID/Info               : UTF-8 Plain Text
Duration                    : 1 h 43 min
Bit rate                    : 77 b/s
Count of elements           : 1864
Stream size                 : 58.7 KiB (0%)
Title                       : SDH
Language                    : English
Default                     : No
Forced                      : No

Menu
00:00:00.000                : en:Chapter 1
00:11:42.327                : en:Chapter 2
00:24:00.397                : en:Chapter 3
00:29:22.719                : en:Chapter 4
00:43:31.359                : en:Chapter 5
00:50:22.561                : en:Chapter 6
00:54:07.286                : en:Chapter 7
01:02:18.902                : en:Chapter 8
01:07:25.124                : en:Chapter 9
01:11:39.629                : en:Chapter 10
01:15:10.381                : en:Chapter 11
01:20:32.411                : en:Chapter 12
01:25:34.963                : en:Chapter 13
01:31:17.639                : en:Chapter 14
01:40:01.746                : en:Chapter 15
01:51:26.221                : en:Chapter 16



Скриншоты:
[+] Всего файлов в раздаче - 1:
The.Greatest.Showman.2017.Lic.BDRip.1080p.ExKinoRay.mkv8.05 GB

Текущая раздача:
ДатаКомментарии    РазмерПиры
2018-04-26 U Величайший шоумен / The Greatest Showman (2017) BDRip 1080p от ExKinoRay | Лицензия 8.05 GB ↑ 53 ↓ 21

Показать еще раздачи по запросу величайший:
2018-04-27 U Величайший шоумен / The Greatest Showman (2017) HDRip от Scarabey | Лицензия 1.45 GB ↑ 40 ↓ 32
2018-04-26 U Величайший шоумен / The Greatest Showman (2017) BDRip от ExKinoRay | Лицензия 1.46 GB ↑ 61 ↓ 25
2018-04-26 U Величайший шоумен / The Greatest Showman (2017) BDRip-HEVC 1080p от ХиМиК | D | Лицензия 4.29 GB ↑ 29 ↓ 12
2018-04-26 U Величайший шоумен / The Greatest Showman (2017) BDRip 720p от HELLYWOOD | Лицензия 4.09 GB ↑ 48 ↓ 22
2018-04-26 U Величайший шоумен / The Greatest Showman (2017) BDRip-AVC от HELLYWOOD | Лицензия 2.18 GB ↑ 51 ↓ 9
2018-04-26 U Величайший шоумен / The Greatest Showman (2017) BDRip от MegaPeer | Лицензия 1.46 GB ↑ 156 ↓ 76
2018-04-25 U Величайший шоумен / The Greatest Showman (2017) BDRip-AVC от OlLanDGroup | Лицензия 1.46 GB ↑ 134 ↓ 8

Отзывы
Зарегистрируйтесь чтобы добавить комментарий.
Обратная связь
Copyleft ©