↑↓Torrent.by
Поиск
Логин: Регистрация
Пароль: Восстановить пароль
Загрузка...

В Питере – петь. Сергей Шнуров (2017) WEB-DL 1080p | iTunes

Скачать v-pitere-pet-sergey-shnurov-2017-web-dl-1080p-itunes.torrent
U Магнитная ссылка Размер: 2.15 GB Раздают: 238 Качают: 74 Добавлен: 2018-04-26 15:08:40
В Питере – петь. Сергей Шнуров (2017) WEB-DL 1080p | iTunes

Название: В Питере – петь. Сергей Шнуров
Год выхода: 2017
Жанр: Документальный
Страна: США, Россия
Перевод: Не требуется
Продолжительность: 00:57:56
Режиссер: Драган Куюнджич
В ролях: Сергей Шнуров

О фильме: В 2017 году рок-группа «Ленинград» празднует 20-летний юбилей. За 2016 год два новых видеоклипа «Ленинграда» — «Экспонат» и «В Питере — пить!» набрали почти 200 миллионов просмотров на популярных Интернет-ресурсах. Для режиссера фильма, философа и культуролога, профессора Университета Флориды (США) Драгана Куюнджича, это послужило поводом для встречи с лидером группы Сергеем Шнуровым. Американского профессора заинтересовало творчество группы, как и ее беспрецедентная популярность в России. Как группе клубного формата, несмотря на частые запреты и отмены концертов в начале своего существования в связи с использованием мата, а также алкогольно-наркотической тематики, удалось стать самой популярной группой, собирающей стотысячные стадионы?

Файл
Качество: WEB-DL 1080p
Видео: MPEG-4 AVC, 1920x1080, 5198 kbps, 25,000 fps
Звук: русский, AAC, 2 ch, 48 kHz, 119 kbps | iTunes
Субтитры: нет
[+] MI
Общее
Уникальный идентификатор                 : 200728003585445384426454676408591055160 (0x9702CEA9C9330C69A3013C791F39F938)
Полное имя                               : G:DelugeВ Питере - петь. Сергей Шнуров (1080.mkv
Формат                                   : Matroska
Версия формата                           : Version 4 / Version 2
Размер файла                             : 2,15 Гбайт
Продолжительность                        : 57 м. 56 с.
Общий поток                              : 5320 Кбит/сек
Дата кодирования                         : UTC 2018-04-26 08:40:41
Программа кодирования                    : mkvmerge v9.5.0 ('Quiet Fire') 64bit
Библиотека кодирования                   : libebml v1.3.4 + libmatroska v1.4.5

Видео
Идентификатор                            : 1
Формат                                   : AVC
Формат/Информация                        : Advanced Video Codec
Профиль формата                          : High@L4
Настройки формата                        : CABAC / 4 Ref Frames
Параметр CABAC формата                   : Да
Параметр RefFrames формата               : 4 кадра
Идентификатор кодека                     : V_MPEG4/ISO/AVC
Продолжительность                        : 57 м. 56 с.
Битрейт                                  : 5198 Кбит/сек
Ширина                                   : 1920 пикселей
Высота                                   : 1080 пикселей
Соотношение сторон                       : 16:9
Режим частоты кадров                     : Постоянный
Частота кадров                           : 25,000 кадров/сек
Цветовое пространство                    : YUV
Субдискретизация насыщенности            : 4:2:0
Битовая глубина                          : 8 бит
Тип развёртки                            : Прогрессивная
Бит/(Пиксели*Кадры)                      : 0.100
Размер потока                            : 2,10 Гбайт (98%)
Язык                                     : English
Default                                  : Да
Forced                                   : Нет
Цветовой диапазон                        : Limited
Основные цвета                           : BT.709
Характеристики трансфера                 : BT.709
Коэффициенты матрицы                     : BT.709

Аудио
Идентификатор                            : 2
Формат                                   : AAC
Формат/Информация                        : Advanced Audio Codec
Профиль формата                          : LC
Идентификатор кодека                     : A_AAC-2
Продолжительность                        : 57 м. 56 с.
Битрейт                                  : 119 Кбит/сек
Каналы                                   : 2 канала
Расположение каналов                     : Front: L R
Частота                                  : 48,0 КГц
Частота кадров                           : 46,875 кадров/сек (1024 SPF)
Метод сжатия                             : С потерями
Размер потока                            : 49,4 Мбайт (2%)
Язык                                     : Russian
Default                                  : Да
Forced                                   : Нет

Меню
00:00:00.000                             : en:Глава 1
00:05:23.960                             : en:Глава 2
00:09:54.680                             : en:Глава 3
00:14:04.960                             : en:Глава 4
00:19:33.160                             : en:Глава 5
00:24:06.880                             : en:Глава 6
00:29:10.280                             : en:Глава 7
00:33:04.600                             : en:Глава 8
00:39:36.320                             : en:Глава 9
00:43:35.560                             : en:Глава 10
00:48:31.760                             : en:Глава 11
00:53:12.280                             : en:Глава 12




Скриншоты:
[+] Всего файлов в раздаче - 1:
В Питере - петь. Сергей Шнуров (1080.mkv2.15 GB

Отзывы
Зарегистрируйтесь чтобы добавить комментарий.
Обратная связь
Copyleft ©