↑↓Torrent.by
Поиск
Логин: Регистрация
Пароль: Восстановить пароль
Загрузка...

Бэтмен-ниндзя / Batman Ninja (2018) BDRip 1080p | L1

Скачать betmen-nindzya-batman-ninja-2018-bdrip-1080p-l1.torrent
U Магнитная ссылка Размер: 6.76 GB Раздают: 92 Качают: 55 Добавлен: 2018-04-26 20:28:00
Бэтмен-ниндзя / Batman Ninja (2018) BDRip 1080p | L1

Название: Бэтмен-ниндзя
Оригинальное название: Batman Ninja
Год выхода: 2018
Жанр: Мультфильм, аниме, боевик
Режиссер: Эрик Дзюнпэй Мидзусаки
В ролях: Роджер Крэйг Смит, Тони Хейл, Тара Стронг, Том Кенни, Грей ДеЛайл, Уилл Фридел, Эрик Бауза

О фильме:
Бэтмэн много раз приходил на помощь своим горожанам, еще больше он спасал город от всяких врагов и напастей, ведь он и есть тот герой, который борется с противниками и врагами всех мастей. Люди любят и уважают своего спасителя и защитника, теперь они могут не беспокоиться и жить спокойной и мирной жизнью, они уверены, что в нужный момент Бэтмен всегда будут рядом. Однако злодеи творят свои злодеяния не только в одном городе, они появляются во всех уголках планеты, но отважный герой всегда успевает прийти на помощь, независимо от расстояния.Однажды Бэтмен получает сообщение, что неизвестные враги появились в Японии, и теперь держат все население страны в страхе. Его срочно просят приехать и оказать людям помощь. На месте Бэтмен знакомится с ниндзя, который обещает ему ознакомить его со своей страной и помогать в преодолении врага. Герои отправляются на поиски противника, но коварный враг не заставляет искать себя долго, он уже сам вышел на тропу войны. Это Джокер, который хочет захватить Японию и стать его императором, но и не таких врагов одолевал Бэтмен, а теперь рядом с ним такой же мужественный и героический ниндзя, вместе они обязательно уничтожат любого врага.

Страна: Япония, США
Студия: DC Comics, DC Entertainment, Kamikaze Douga
Продолжительность: 01:25:16
Перевод: Любительский одноголосый закадровый [Animedub]

Файл
Кодек: x.264
Качество: BDRip 1080p
Видео: MPEG-4 AVC, 1920x1080, ~10510 Kбит/с, 23.976 кадр/с
Звук:
Аудио #1: Русский ( АС3, 2ch, 384 Кбит/с, 48.0 KHz) Любительский (одноголосый закадровый)  Animedub
Аудио #2: Английский ( АС3, 6 ch, 448 Кбит/с, 48.0 KHz)
Субтитры: английские

Семпл


[+] MediaInfo
Источник: Batman.Ninja.2018.1080p.BluRay.x264.DTS-HD.MA.5.1-MT
General
Unique ID                      : 190489751259399179476261117347360526597 (0x8F4EFDD9D22FB031A137EE665CEDD105)
Complete name                  : Batman.Ninja.2018.BDRip.1080p.mkv
Format                         : Matroska
Format version                 : Version 4 / Version 2
File size                      : 6.76 GiB
Duration                       : 1 h 25 min
Overall bit rate               : 11.3 Mb/s
Encoded date                   : UTC 2018-04-26 12:52:00
Writing application            : mkvmerge v7.1.0 ('Good Love') 64bit built on Jul 27 2014 13:06:55
Writing library                : libebml v1.3.0 + libmatroska v1.4.1

Video
ID                             : 1
Format                         : AVC
Format/Info                    : Advanced Video Codec
Format profile                 : High@L4.1
Format settings                : CABAC / 5 Ref Frames
Format settings, CABAC         : Yes
Format settings, ReFrames      : 5 frames
Codec ID                       : V_MPEG4/ISO/AVC
Duration                       : 1 h 25 min
Bit rate                       : 10.5 Mb/s
Width                          : 1 920 pixels
Height                         : 1 080 pixels
Display aspect ratio           : 16:9
Frame rate mode                : Constant
Frame rate                     : 23.976 (24000/1001) FPS
Color space                    : YUV
Chroma subsampling             : 4:2:0
Bit depth                      : 8 bits
Scan type                      : Progressive
Bits/(Pixel*Frame)             : 0.211
Stream size                    : 6.26 GiB (93%)
Writing library                : x264 core 155 r2901 7d0ff22
Encoding settings              : cabac=1 / ref=5 / deblock=1:-3:-3 / analyse=0x3:0x113 / me=umh / subme=10 / psy=1 / psy_rd=1.05:0.10 / mixed_ref=1 / me_range=48 / chroma_me=1 / trellis=2 / 8x8dct=1 / cqm=0 / deadzone=21,11 / fast_pskip=0 / chroma_qp_offset=-2 / threads=12 / lookahead_threads=1 / sliced_threads=0 / nr=0 / decimate=1 / interlaced=0 / bluray_compat=0 / constrained_intra=0 / bframes=6 / b_pyramid=2 / b_adapt=2 / b_bias=0 / direct=3 / weightb=1 / open_gop=0 / weightp=2 / keyint=250 / keyint_min=23 / scenecut=40 / intra_refresh=0 / rc=2pass / mbtree=0 / bitrate=10510 / ratetol=2.0 / qcomp=0.70 / qpmin=0 / qpmax=69 / qpstep=4 / cplxblur=20.0 / qblur=0.5 / ip_ratio=1.40 / pb_ratio=1.30 / aq=3:1.00
Language                       : English
Default                        : Yes
Forced                         : No

Audio #1
ID                             : 2
Format                         : AC-3
Format/Info                    : Audio Coding 3
Codec ID                       : A_AC3
Duration                       : 1 h 25 min
Bit rate mode                  : Constant
Bit rate                       : 384 kb/s
Channel(s)                     : 2 channels
Channel positions              : Front: L R
Sampling rate                  : 48.0 kHz
Frame rate                     : 31.250 FPS (1536 SPF)
Bit depth                      : 16 bits
Compression mode               : Lossy
Stream size                    : 234 MiB (3%)
Language                       : Russian
Service kind                   : Complete Main
Default                        : Yes
Forced                         : No

Audio #2
ID                             : 5
Format                         : AC-3
Format/Info                    : Audio Coding 3
Codec ID                       : A_AC3
Duration                       : 1 h 25 min
Bit rate mode                  : Constant
Bit rate                       : 448 kb/s
Channel(s)                     : 6 channels
Channel positions              : Front: L C R, Side: L R, LFE
Sampling rate                  : 48.0 kHz
Frame rate                     : 31.250 FPS (1536 SPF)
Bit depth                      : 16 bits
Compression mode               : Lossy
Stream size                    : 273 MiB (4%)
Language                       : English
Service kind                   : Complete Main
Default                        : No
Forced                         : No

Text #1
ID                             : 3
Format                         : PGS
Muxing mode                    : zlib
Codec ID                       : S_HDMV/PGS
Codec ID/Info                  : Picture based subtitle format used on BDs/HD-DVDs
Duration                       : 1 h 24 min
Bit rate                       : 11.2 kb/s
Count of elements              : 2320
Stream size                    : 6.75 MiB (0%)
Language                       : English
Default                        : No
Forced                         : No

Text #2
ID                             : 4
Format                         : UTF-8
Codec ID                       : S_TEXT/UTF8
Codec ID/Info                  : UTF-8 Plain Text
Duration                       : 1 h 24 min
Bit rate                       : 45 b/s
Count of elements              : 880
Stream size                    : 28.3 KiB (0%)
Language                       : English
Default                        : No
Forced                         : No

Menu
00:00:00.000                   : en:00:00:00.000
00:08:32.345                   : en:00:08:32.345
00:22:30.683                   : en:00:22:30.683
00:31:12.537                   : en:00:31:12.537
00:42:46.689                   : en:00:42:46.689
00:51:34.425                   : en:00:51:34.425
01:01:01.449                   : en:01:01:01.449
01:12:15.831                   : en:01:12:15.831
01:20:28.657                   : en:01:20:28.657



Скриншоты:
[+] Всего файлов в раздаче - 1:
Batman.Ninja.2018.BDRip.1080p.mkv6.76 GB

Текущая раздача:
ДатаКомментарии    РазмерПиры
2018-04-26 U Бэтмен-ниндзя / Batman Ninja (2018) BDRip 1080p | L1 6.76 GB ↑ 92 ↓ 55

Показать еще раздачи по запросу бэтмен:
2018-06-20 U Бэтмен: Убийственная шутка / Batman: The Killing Joke (2016) BDRip от ExKinoRay | D 1.46 GB ↑ 67 ↓ 12
2018-04-30 U Бэтмен-ниндзя / Batman Ninja (2018) WEB-DLRip 720p | Flarrow Films 3.22 GB ↑ 91 ↓ 29
2018-04-26 U Бэтмен-ниндзя / Batman Ninja (2018) WEB-DL 720p | L1 2.84 GB ↑ 139 ↓ 69
2018-04-14 U Бэтмен: Готэм в газовом свете / Batman: Gotham by Gaslight (2018) HDRip | Jaskier 1.37 GB ↑ 118 ↓ 22
2018-02-10 U Бэтмен: Готэм в газовом свете / Batman: Gotham by Gaslight (2018) WEBRip от Portablius | Flarrow Films 697.62 MB ↑ 100 ↓ 24
2018-02-05 U Бэтмен: Готэм в газовом свете / Batman: Gotham by Gaslight (2018) BDRip 720p от potroks | L 2.06 GB ↑ 123 ↓ 47
2018-02-05 U Бэтмен: Готэм в газовом свете / Batman: Gotham by Gaslight (2018) WEBRip 720p | Flarrow Films 2.39 GB ↑ 392 ↓ 147

Отзывы
Зарегистрируйтесь чтобы добавить комментарий.
Обратная связь
Copyleft ©