↑↓Torrent.by
Поиск
Логин: Регистрация
Пароль: Восстановить пароль
Загрузка...

Тихоокеанский рубеж 2 / Pacific Rim Uprising (2018) WEBRip 720p | HDrezka Studio

Скачать tihookeanskiy-rubezh-2-pacific-rim-uprising-2018-webrip-720p-hdrezka-studio.torrent
U Магнитная ссылка Размер: 3.51 GB Раздают: 165 Качают: 148 Добавлен: 2018-04-28 19:53:22
Тихоокеанский рубеж 2 / Pacific Rim Uprising (2018) WEBRip 720p | HDrezka Studio

Название: Тихоокеанский рубеж 2
Оригинальное название: Pacific Rim Uprising
Год выхода: 2018
Жанр: фантастика, боевик, приключения

Режиссер: Стивен С. ДеНайт

В ролях: Джон Бойега, Скотт Иствуд, Кэйли Спэни, Берн Горман, Чарли Дэй, Цзин Тянь, Макс Чжан, Адриа Архона, Ринко Кикути, Каран Брэр

О фильме:
Команда пилотируемых роботов-защитников остановила вторжение гигантских инопланетных монстров. Великая битва за Тихоокеанский рубеж ознаменовала новую главу в истории человечества. Однако война только начинается…
Пришло время нового поколения отстаивать своё право на Землю.

Страна: США, Китай, Великобритания
Продолжительность: 01:50:43
Перевод: Профессиональный многоголосый [HDrezka Studio]

Файл
Кодек: x.264
Качество: WEBRip 720p
Видео: AVC, 1280x536 (2.40:1), 23.976 fps, 3 954 Kbps
Аудио #1: AC-3, 48.0 KHz, 2 ch, 192 Kbps, CBR | RUS [MVO/HDrezka Studio]
Аудио #2: AC-3, 48.0 KHz, 2 ch, 192 Kbps, CBR | UKR [DUB/LeDoyen]
Аудио #3: AC-3, 48.0 KHz, 2 ch, 192 Kbps, CBR | ENG
Субтитры: Корейские (вшитые), английские

Семпл


[+] MI
Общее
Уникальный идентификатор                 : 187637407315982686739551003690637201317 (0x8D29A66FD15883E9BFDB7A3D86C80FA5)
Полное имя                               : Pacific.Rim.2.Uprising.2018.WEBRip.720p.mkv
Формат                                   : Matroska
Версия формата                           : Version 4 / Version 2
Размер файла                             : 3,51 Гбайт
Продолжительность                        : 1 ч. 50 м.
Общий поток                              : 4533 Кбит/сек
Дата кодирования                         : UTC 2018-04-28 15:43:07
Программа кодирования                    : mkvmerge v8.3.0 ('Over the Horizon') 64bit
Библиотека кодирования                   : libebml v1.3.1 + libmatroska v1.4.2

Видео
Идентификатор                            : 1
Формат                                   : AVC
Формат/Информация                        : Advanced Video Codec
Профиль формата                          : High@L4.1
Параметр CABAC формата                   : Да
Параметр ReFrames формата                : 12 кадров
Идентификатор кодека                     : V_MPEG4/ISO/AVC
Продолжительность                        : 1 ч. 50 м.
Битрейт                                  : 3954 Кбит/сек
Ширина                                   : 1280 пикселей
Высота                                   : 536 пикселей
Соотношение сторон                       : 2,40:1
Режим частоты кадров                     : Переменный
Частота кадров                           : 23,976 (24000/1001) кадра/сек
Цветовое пространство                    : YUV
Субдискретизация насыщенности            : 4:2:0
Битовая глубина                          : 8 бит
Тип развёртки                            : Прогрессивная
Бит/(Пиксели*Кадры)                      : 0.240
Размер потока                            : 3,06 Гбайт (87%)
Библиотека кодирования                   : x264 core 142 r2431+42 c69a006 tMod [8-bit@all X86]
Настройки программы                      : cabac=1 / ref=12 / deblock=1:-3:-3 / analyse=0x3:0x113 / me=hex / subme=7 / psy=1 / fade_compensate=0.00 / psy_rd=1.00:0.00 / mixed_ref=1 / me_range=16 / chroma_me=1 / trellis=2 / 8x8dct=1 / cqm=0 / deadzone=21,11 / fast_pskip=0 / chroma_qp_offset=-2 / threads=12 / lookahead_threads=4 / sliced_threads=0 / nr=0 / decimate=1 / interlaced=0 / bluray_compat=0 / constrained_intra=0 / fgo=0 / bframes=7 / b_pyramid=2 / b_adapt=2 / b_bias=0 / direct=1 / weightb=1 / open_gop=0 / weightp=2 / keyint=240 / keyint_min=23 / scenecut=40 / intra_refresh=0 / rc_lookahead=48 / rc=crf / mbtree=1 / crf=21.0000 / qcomp=0.60 / qpmin=0:0:0 / qpmax=69:69:69 / qpstep=4 / vbv_maxrate=49000 / vbv_bufsize=49000 / crf_max=0.0 / nal_hrd=none / filler=0 / ip_ratio=1.40 / aq=4:0.85 / aq-sensitivity=10.00 / aq-factor=1.00:1.00:1.00 / aq2=0 / aq3=0
Язык                                     : English
Default                                  : Да
Forced                                   : Нет
Цветовой диапазон                        : Limited
Основные цвета                           : BT.709
Характеристики трансфера                 : BT.709
Коэффициенты матрицы                     : BT.709

Аудио #1
Идентификатор                            : 2
Формат                                   : AC-3
Формат/Информация                        : Audio Coding 3
Расширение режима                        : CM (complete main)
Параметр Endianness формата              : Big
Идентификатор кодека                     : A_AC3
Продолжительность                        : 1 ч. 50 м.
Вид битрейта                             : Постоянный
Битрейт                                  : 192 Кбит/сек
Каналы                                   : 2 канала
Расположение каналов                     : Front: L R
Частота                                  : 48,0 КГц
Частота кадров                           : 31,250 кадров/сек (1536 spf)
Битовая глубина                          : 16 бит
Метод сжатия                             : С потерями
Размер потока                            : 152 Мбайт (4%)
Заголовок                                : HDrezka
Язык                                     : Russian
Default                                  : Да
Forced                                   : Нет

Аудио #2
Идентификатор                            : 3
Формат                                   : AC-3
Формат/Информация                        : Audio Coding 3
Расширение режима                        : CM (complete main)
Параметр Endianness формата              : Big
Идентификатор кодека                     : A_AC3
Продолжительность                        : 1 ч. 50 м.
Вид битрейта                             : Постоянный
Битрейт                                  : 192 Кбит/сек
Каналы                                   : 2 канала
Расположение каналов                     : Front: L R
Частота                                  : 48,0 КГц
Частота кадров                           : 31,250 кадров/сек (1536 spf)
Битовая глубина                          : 16 бит
Метод сжатия                             : С потерями
Размер потока                            : 152 Мбайт (4%)
Заголовок                                : DUB [LeDoyen]
Язык                                     : Ukrainian
Default                                  : Нет
Forced                                   : Нет

Аудио #3
Идентификатор                            : 4
Формат                                   : AC-3
Формат/Информация                        : Audio Coding 3
Профиль формата                          : Dolby Digital
Расширение режима                        : CM (complete main)
Параметр Endianness формата              : Big
Идентификатор кодека                     : A_AC3
Продолжительность                        : 1 ч. 50 м.
Вид битрейта                             : Постоянный
Битрейт                                  : 192 Кбит/сек
Каналы                                   : 2 канала
Расположение каналов                     : Front: L R
Частота                                  : 48,0 КГц
Частота кадров                           : 31,250 кадров/сек (1536 spf)
Битовая глубина                          : 16 бит
Метод сжатия                             : С потерями
Задержка видео                           : 27 мс.
Размер потока                            : 152 Мбайт (4%)
Язык                                     : English
Default                                  : Нет
Forced                                   : Нет

Текст #1
Идентификатор                            : 5
Формат                                   : UTF-8
Идентификатор кодека                     : S_TEXT/UTF8
Идентификатор кодека/Информация          : UTF-8 Plain Text
Продолжительность                        : 1 ч. 40 м.
Битрейт                                  : 98 бит/сек
Count of elements                        : 1127
Размер потока                            : 72,0 Кбайт (0%)
Язык                                     : English
Default                                  : Нет
Forced                                   : Нет

Текст #2
Идентификатор                            : 6
Формат                                   : SSA
Идентификатор кодека                     : S_TEXT/SSA
Идентификатор кодека/Информация          : Sub Station Alpha
Продолжительность                        : 1 ч. 40 м.
Битрейт                                  : 128 бит/сек
Count of elements                        : 1127
Метод сжатия                             : Без потерь
Размер потока                            : 94,1 Кбайт (0%)
Язык                                     : English
Default                                  : Нет
Forced                                   : Нет

Текст #3
Идентификатор                            : 7
Формат                                   : SSA
Идентификатор кодека                     : S_TEXT/SSA
Идентификатор кодека/Информация          : Sub Station Alpha
Продолжительность                        : 1 ч. 40 м.
Битрейт                                  : 138 бит/сек
Count of elements                        : 1127
Метод сжатия                             : Без потерь
Размер потока                            : 102 Кбайт (0%)
Язык                                     : English
Default                                  : Нет
Forced                                   : Нет



Скриншоты:
[+] Всего файлов в раздаче - 1:
Pacific.Rim.2.Uprising.2018.WEBRip.720p.mkv3.51 GB

Текущая раздача:
ДатаКомментарии    РазмерПиры
2018-04-28 U Тихоокеанский рубеж 2 / Pacific Rim Uprising (2018) WEBRip 720p | HDrezka Studio 3.51 GB ↑ 165 ↓ 148

Показать еще раздачи по запросу тихоокеанский:
Вчера U Тихоокеанский рубеж 2 / Pacific Rim Uprising (2018) WEB-DLRip от Generalfilm | КПК | iTunes 420.89 MB ↑ 66 ↓ 11
2018-05-18 U Тихоокеанский рубеж / Pacific Rim (2013) BDRip-AVC | Лицензия 1.45 GB ↑ 29 ↓ 10
2018-05-18 U Тихоокеанский рубеж 2 / Pacific Rim: Uprising (2018) WEB-DLRip от Scarabey | iTunes 1.45 GB ↑ 277 ↓ 98
2018-05-17 U Тихоокеанский рубеж 2 / Pacific Rim Uprising (2018) WEB-DLRip-AVC от ExKinoRay | iTunes 745.80 MB ↑ 165 ↓ 96
2018-05-17 U Тихоокеанский рубеж 2 / Pacific Rim Uprising (2018) WEB-DLRip-AVC от OlLanDGroup | iTunes 1.46 GB ↑ 150 ↓ 56
2018-05-17 U Тихоокеанский рубеж 2 / Pacific Rim Uprising (2018) WEB-DLRip-AVC от ExKinoRay | iTunes, HDrezka Studio 2.38 GB ↑ 176 ↓ 57
2018-05-17 U Тихоокеанский рубеж 2 / Pacific Rim Uprising (2018) WEB-DLRip от MegaPeer | iTunes 1.46 GB ↑ 452 ↓ 224

Отзывы
Зарегистрируйтесь чтобы добавить комментарий.
Обратная связь
Copyleft ©